<?xml version="1.0" standalone="no"?>
<!DOCTYPE svg PUBLIC "-//W3C//DTD SVG 1.1//EN" "http://www.w3.org/Graphics/SVG/1.1/DTD/svg11.dtd" >
<svg xmlns="http://www.w3.org/2000/svg">
<metadata></metadata>
<defs>
<font id="notesesabold" horiz-adv-x="1075" >
<font-face units-per-em="2048" ascent="1651" descent="-397" />
<missing-glyph horiz-adv-x="573" />
<glyph unicode="&#xfb01;" d="M20 827v158q0 39 39 39h64v117q0 180 88 257t219 77q39 0 73 -3.5t48 -5.5l14 -4q39 -6 39 -39v-174q0 -37 -39 -35q-43 4 -71 5q-94 0 -95 -91v-104h514q39 0 39 -39v-946q0 -39 -39 -39h-198q-39 0 -39 39v749h-277v-749q0 -39 -39 -39h-198q-39 0 -39 39v749h-64 q-39 0 -39 39zM676 1217v198q0 39 39 39h198q39 0 39 -39v-198q0 -39 -39 -39h-198q-39 0 -39 39z" />
<glyph unicode="&#xfb02;" d="M20 827v158q0 39 39 39h64v117q0 180 88 257t219 77q39 0 73 -3.5t48 -5.5l14 -4q39 -6 39 -39v-174q0 -37 -39 -35q-43 4 -71 5q-94 0 -95 -91v-104h105q39 0 39 -39v-158q0 -39 -39 -39h-105v-749q0 -39 -39 -39h-198q-39 0 -39 39v749h-64q-39 0 -39 39zM676 39v1376 q0 39 39 39h198q39 0 39 -39v-1376q0 -39 -39 -39h-198q-39 0 -39 39z" />
<glyph horiz-adv-x="0" />
<glyph horiz-adv-x="0" />
<glyph horiz-adv-x="682" />
<glyph unicode="&#xd;" horiz-adv-x="681" />
<glyph unicode=" "  horiz-adv-x="573" />
<glyph unicode="&#x09;" horiz-adv-x="573" />
<glyph unicode="&#xa0;" horiz-adv-x="573" />
<glyph unicode="!" horiz-adv-x="522" d="M113 39v219q0 39 39 39h219q39 0 39 -39v-219q0 -39 -39 -39h-219q-39 0 -39 39zM123 520v895q0 39 39 39h198q39 0 39 -39v-895q0 -39 -39 -39h-198q-39 0 -39 39z" />
<glyph unicode="&#x22;" horiz-adv-x="880" d="M102 848v567q0 39 39 39h199q39 0 39 -39v-567q0 -39 -39 -39h-199q-39 0 -39 39zM502 848v567q0 39 39 39h198q39 0 39 -39v-567q0 -39 -39 -39h-198q-39 0 -39 39z" />
<glyph unicode="#" horiz-adv-x="1024" d="M41 346v158q0 39 39 39h74v368h-74q-39 0 -39 39v158q0 39 39 39h74v268q0 39 39 39h198q39 0 39 -39v-268h164v268q0 39 39 39h198q39 0 39 -39v-268h74q39 0 39 -39v-158q0 -39 -39 -39h-74v-368h74q39 0 39 -39v-158q0 -39 -39 -39h-74v-268q0 -39 -39 -39h-198 q-39 0 -39 39v268h-164v-268q0 -39 -39 -39h-198q-39 0 -39 39v268h-74q-39 0 -39 39zM430 543h164v368h-164v-368z" />
<glyph unicode="$" horiz-adv-x="1024" d="M72 63v187q0 37 41 31q231 -45 348 -45t166 38.5t49 128.5v41q0 61 -40 95t-120 61l-174 57q-260 84 -260 361v51q0 311 297 385v207q0 39 39 39h198q39 0 39 -39v-191q55 -4 114.5 -12t90.5 -14l33 -6q39 -6 39 -39v-180q0 -37 -39 -33q-207 33 -340 33 q-104 0 -149.5 -37t-45.5 -113v-31q0 -88 121 -129l174 -57q141 -47 220 -131t79 -256v-62q0 -184 -72.5 -281t-224.5 -128v-201q0 -39 -39 -39h-198q-39 0 -39 39v191q-59 6 -127 16t-105 16l-36 9q-39 6 -39 38z" />
<glyph unicode="%" horiz-adv-x="2191" d="M123 1034v39q0 184 112.5 293t303 109t303 -109t112.5 -293v-39q0 -184 -112.5 -292.5t-303 -108.5t-303 108.5t-112.5 292.5zM399 1024q0 -156 139.5 -156t139.5 156v59q0 156 -139.5 156t-139.5 -156v-59zM612 39l670 1376q20 39 45 39h223q16 0 26.5 -12.5t2.5 -26.5 l-670 -1376q-20 -39 -45 -39h-223q-16 0 -26.5 12.5t-2.5 26.5zM1237 381v39q0 184 112.5 292.5t303 108.5t303 -108.5t112.5 -292.5v-39q0 -184 -112.5 -292.5t-303 -108.5t-303 108.5t-112.5 292.5zM1513 371q0 -156 139.5 -156t139.5 156v59q0 156 -139.5 156 t-139.5 -156v-59z" />
<glyph unicode="&#x26;" horiz-adv-x="1398" d="M123 367v63q0 121 62.5 202t172.5 154q-143 156 -143 293v54q0 154 106.5 248t288.5 94q188 0 292 -93.5t104 -248.5v-43q0 -104 -62.5 -187.5t-179.5 -167.5l176 -196q12 61 12 137v125q0 39 39 39h199q39 0 39 -39v-125q0 -209 -82 -363l242 -264q10 -10 10 -22 q0 -27 -31 -27h-270q-25 0 -62 37l-63 69q-168 -127 -381 -126q-225 0 -347 97t-122 290zM399 387q0 -162 193 -162q127 0 213 68l-289 321q-117 -90 -117 -184v-43zM492 1090q0 -45 26.5 -83t87.5 -104q127 105 127 197v18q0 47 -32.5 79t-90.5 32q-59 0 -88.5 -32 t-29.5 -79v-28z" />
<glyph unicode="'" horiz-adv-x="481" d="M102 848v567q0 39 39 39h199q39 0 39 -39v-567q0 -39 -39 -39h-199q-39 0 -39 39z" />
<glyph unicode="(" horiz-adv-x="665" d="M123 225v1004q0 254 118.5 372.5t356.5 118.5h12q35 0 35 -34v-152q0 -39 -35 -39h-16q-98 0 -146.5 -62.5t-48.5 -203.5v-1004q0 -141 48.5 -203.5t146.5 -62.5h16q35 0 35 -39v-151q0 -35 -35 -35h-12q-238 0 -356.5 118.5t-118.5 372.5z" />
<glyph unicode=")" horiz-adv-x="665" d="M20 -80q0 39 35 39h17q98 0 146 62.5t48 203.5v1004q0 141 -48 203.5t-146 62.5h-17q-35 0 -35 39v152q0 35 35 34h13q238 0 356.5 -118.5t118.5 -372.5v-1004q0 -254 -119 -372.5t-356 -118.5h-13q-35 0 -35 35v151z" />
<glyph unicode="*" horiz-adv-x="1097" d="M123 1149l92 141q23 35 53 15l160 -99v209q0 39 39 39h168q39 0 39 -39v-209l160 101q31 20 53 -15l90 -141q20 -31 -14 -53l-224 -142l179 -194q23 -27 -5 -53l-122 -115q-27 -27 -56 4l-184 201l-189 -203q-31 -31 -55 -4l-123 117q-29 29 -4 53l180 194l-223 140 q-35 23 -14 53z" />
<glyph unicode="+" d="M102 633v168q0 39 39 39h269v288q0 39 39 39h178q39 0 39 -39v-288h268q39 0 39 -39v-168q0 -39 -39 -39h-268v-289q0 -39 -39 -39h-178q-39 0 -39 39v289h-269q-39 0 -39 39z" />
<glyph unicode="," horiz-adv-x="501" d="M102 39v219q0 39 39 39h219q39 0 39 -39v-238l-96 -350q-10 -39 -43 -39h-102q-39 0 -33 37l59 332h-43q-39 0 -39 39z" />
<glyph unicode="-" horiz-adv-x="716" d="M102 633v168q0 39 39 39h434q39 0 39 -39v-168q0 -39 -39 -39h-434q-39 0 -39 39z" />
<glyph unicode="." horiz-adv-x="501" d="M102 39v219q0 39 39 39h219q39 0 39 -39v-219q0 -39 -39 -39h-219q-39 0 -39 39z" />
<glyph unicode="/" horiz-adv-x="870" d="M94 43l398 1374q10 37 43 37h210q16 0 25.5 -13.5t5.5 -29.5l-397 -1374q-10 -37 -43 -37h-211q-16 0 -25.5 13.5t-5.5 29.5z" />
<glyph unicode="0" horiz-adv-x="1024" d="M72 451v553q0 471 440 471t440 -471v-553q0 -471 -440 -471t-440 471zM348 461q0 -115 37 -170t127 -55t127 55t37 170v532q0 115 -37 170.5t-127 55.5t-127 -55.5t-37 -170.5v-532z" />
<glyph unicode="1" horiz-adv-x="1024" d="M92 1137v186q0 37 37 47l301 84h227q39 0 39 -39v-1159h228q39 0 39 -39v-178q0 -39 -39 -39h-772q-39 0 -39 39v178q0 39 39 39h268v913l-289 -63q-39 -6 -39 31z" />
<glyph unicode="2" horiz-adv-x="1024" d="M82 39v283q0 121 42 212t106.5 141t138 93t138 70.5t106.5 70.5t42 99v71q0 139 -184 140q-55 0 -142 -8.5t-149 -16.5l-59 -8q-39 -4 -39 31v178q0 39 39 43q203 37 354 37q457 0 457 -396v-71q0 -125 -59.5 -211t-143.5 -131t-168 -86t-143.5 -104.5t-59.5 -156.5v-63 h535q39 0 39 -39v-178q0 -39 -39 -39h-772q-39 0 -39 39z" />
<glyph unicode="3" horiz-adv-x="1024" d="M61 59v183q0 35 39 30q217 -37 346 -36q209 0 209 155v76q0 84 -54 120t-163 36h-215q-39 0 -39 39v178q0 39 39 39h174q117 0 167 38.5t50 124.5v43q0 70 -41 102t-145 32q-57 0 -139 -9.5t-135 -17.5l-54 -8q-39 -4 -39 30v181q0 35 39 39q174 41 342 41q219 0 334 -84 t115 -287v-55q0 -188 -156 -281q197 -86 197 -305v-88q0 -395 -479 -395q-72 0 -160 10t-141 20l-52 10q-39 4 -39 39z" />
<glyph unicode="4" horiz-adv-x="1024" d="M20 315v217l238 885q10 37 43 37h277q16 0 25 -13.5t5 -29.5l-270 -879h276v453q0 39 39 39h199q39 0 39 -39v-453h84q39 0 39 -38v-179q0 -39 -39 -39h-84v-237q0 -39 -39 -39h-199q-39 0 -39 39v237h-555q-39 0 -39 39z" />
<glyph unicode="5" horiz-adv-x="1024" d="M82 61v181q0 35 39 30q213 -37 346 -36q121 0 165 46t44 144v111q0 78 -32 107.5t-97 29.5q-23 0 -44.5 -3t-43 -11.5t-35.5 -14.5t-35.5 -20.5t-31 -20.5t-33 -22.5t-27.5 -20.5h-176q-39 0 -39 39v815q0 39 39 39h792q39 0 39 -39v-178q0 -39 -39 -39h-555v-332 q109 63 232 64q362 0 362 -389v-135q0 -231 -122.5 -328.5t-358.5 -97.5q-74 0 -161 10t-138 20l-51 10q-39 4 -39 41z" />
<glyph unicode="6" horiz-adv-x="1024" d="M72 410v532q0 264 136 398.5t376 134.5q53 0 119.5 -6.5t107.5 -14.5l41 -6q39 -2 39 -43v-176q0 -35 -39 -33q-172 23 -258 23q-246 0 -246 -236v-117q106 63 244 64q360 0 360 -385v-135q0 -205 -111.5 -317.5t-328.5 -112.5q-213 0 -326.5 111.5t-113.5 318.5z M348 416q0 -180 164 -180t164 180v114q0 143 -144 144q-74 0 -184 -58v-200z" />
<glyph unicode="7" horiz-adv-x="1024" d="M51 1237v178q0 39 39 39h834q39 0 39 -39v-217l-453 -1161q-14 -37 -43 -37h-268q-16 0 -23.5 14.5t-1.5 30.5l477 1153h-561q-39 0 -39 39z" />
<glyph unicode="8" horiz-adv-x="1024" d="M51 391v53q0 223 176 318q-156 86 -155 289v45q0 188 120.5 283.5t319.5 95.5t319.5 -95.5t120.5 -283.5v-45q0 -203 -155 -289q176 -94 176 -318v-53q0 -205 -124 -308t-337 -103t-337 103t-124 308zM328 418q0 -86 49 -134t135 -48t135 48t49 134v33q0 184 -184 184 t-184 -184v-33zM348 1049q0 -70 40 -114t124 -44t124 44t40 114v14q0 70 -39 113t-125 43t-125 -43t-39 -113v-14z" />
<glyph unicode="9" horiz-adv-x="1024" d="M72 934v110q0 205 111.5 318t328.5 113q219 0 329.5 -113t110.5 -318v-552q0 -270 -125 -391t-366 -121q-49 0 -117 6t-111 14l-40 6q-39 8 -39 39v180q0 35 39 33q172 -23 258 -22q121 0 173 62t52 183v125q-109 -61 -238 -61q-188 0 -277 103.5t-89 285.5zM348 950 q0 -150 144 -149q69 0 184 47v190q0 180 -164 180.5t-164 -180.5v-88z" />
<glyph unicode=":" horiz-adv-x="501" d="M102 39v219q0 39 39 39h219q39 0 39 -39v-219q0 -39 -39 -39h-219q-39 0 -39 39zM102 766v219q0 39 39 39h219q39 0 39 -39v-219q0 -39 -39 -39h-219q-39 0 -39 39z" />
<glyph unicode=";" horiz-adv-x="501" d="M102 39v219q0 39 39 39h219q39 0 39 -39v-238l-96 -350q-10 -39 -43 -39h-102q-39 0 -33 37l59 332h-43q-39 0 -39 39zM102 766v219q0 39 39 39h219q39 0 39 -39v-219q0 -39 -39 -39h-219q-39 0 -39 39z" />
<glyph unicode="&#x3c;" d="M102 627v180q0 31 37 49l793 354q14 8 27.5 -1t13.5 -25v-205q0 -27 -39 -43l-531 -219l531 -219q39 -16 39 -43v-205q0 -16 -13.5 -25.5t-27.5 -1.5l-793 355q-37 18 -37 49z" />
<glyph unicode="=" d="M102 387v168q0 39 39 39h793q39 0 39 -39v-168q0 -39 -39 -39h-793q-39 0 -39 39zM102 879v168q0 39 39 38h793q39 0 39 -38v-168q0 -39 -39 -39h-793q-39 0 -39 39z" />
<glyph unicode="&#x3e;" d="M102 250v205q0 27 39 43l531 219l-531 219q-39 16 -39 43v205q0 16 13.5 25.5t27.5 0.5l793 -354q37 -18 37 -49v-180q0 -31 -37 -49l-793 -355q-14 -8 -27.5 1t-13.5 26z" />
<glyph unicode="?" horiz-adv-x="931" d="M82 1217v180q0 35 39 39q162 39 313 39q395 0 395 -332v-31q0 -184 -131 -291l-49 -39q-39 -33 -56.5 -50t-33.5 -54t-16 -90v-68q0 -39 -39 -39h-199q-39 0 -39 39v68q0 141 34 215t110 129l53 39q2 2 14 10t15.5 11t13.5 11.5t13 11.5t10.5 11t10.5 14.5t7 15.5t5 18 t1 20v20q0 104 -152 105q-47 0 -117.5 -8.5t-115.5 -16.5l-47 -8q-39 -4 -39 31zM256 39v219q0 39 39 39h219q39 0 39 -39v-219q0 -39 -39 -39h-219q-39 0 -39 39z" />
<glyph unicode="@" horiz-adv-x="2048" d="M123 471v82q0 434 231.5 678t669.5 244t669.5 -221.5t231.5 -598.5v-82q0 -299 -128 -436t-347 -137q-199 0 -281 137q-150 -117 -301 -117q-145 0 -225 84t-80 228q0 51 8 98l45 246q33 178 135.5 263t301.5 85q82 0 182 -18.5t162 -34.5l59 -19q35 -10 29 -47l-80 -454 q-8 -57 -8 -86q0 -119 78 -119q70 0 111.5 83t41.5 244v82q0 553 -604 553q-317 0 -460.5 -178t-143.5 -477v-82q0 -129 31.5 -235.5t99 -194.5t188.5 -136t285 -48h299q39 0 39 -39v-189q0 -39 -39 -39h-299q-442 0 -671.5 225.5t-229.5 655.5zM844 377q0 -111 100 -111 q74 0 178 47q0 6 -1 16.5t-1 14.5q0 61 13 127l51 289q-92 18 -129 18q-82 0 -121 -38t-51 -115l-33 -185q-6 -35 -6 -63z" />
<glyph unicode="A" horiz-adv-x="1239" d="M33 41l405 1374q10 39 47 39h269q37 0 47 -39l405 -1374q1 -5 1 -10q0 -11 -5 -19q-8 -12 -24 -12h-224q-33 0 -43 39l-57 207h-469l-57 -207q-10 -39 -43 -39h-224q-16 0 -24 12q-5 8 -5 19q0 5 1 10zM457 502h325l-161 590z" />
<glyph unicode="B" horiz-adv-x="1228" d="M123 39v1376q0 39 39 39h452q471 0 471 -399q0 -213 -167 -307q208 -88 208 -338q0 -217 -119.5 -313.5t-351.5 -96.5h-493q-39 0 -39 39zM399 246h236q109 0 162 42t53 142q0 102 -55.5 143t-159.5 41h-236v-368zM399 860h195q113 0 164 41t51 133q0 98 -52 136t-163 38 h-195v-348z" />
<glyph unicode="C" horiz-adv-x="972" d="M123 512v430q0 256 129 394.5t373 138.5q49 0 105 -6.5t89 -10.5l33 -6q39 -4 39 -41v-182q0 -37 -41 -33q-133 16 -225 16q-225 0 -226 -290v-390q0 -139 52.5 -214.5t183.5 -75.5q41 0 95 4t89 8l33 6q39 4 39 -33v-184q0 -37 -39 -41q-114 -22 -218 -22h-9 q-244 0 -373 138t-129 394z" />
<glyph unicode="D" horiz-adv-x="1249" d="M123 39v1376q0 39 39 39h463q244 0 372.5 -138t128.5 -394v-390q0 -256 -129 -394t-372 -138h-463q-39 0 -39 39zM399 256h226q225 0 225 297v348q0 297 -225 297h-226v-942z" />
<glyph unicode="E" horiz-adv-x="1034" d="M123 39v1376q0 39 39 39h751q39 0 39 -39v-178q0 -39 -39 -39h-514v-328h473q39 0 39 -39v-178q0 -39 -39 -39h-473v-358h514q39 0 39 -39v-178q0 -39 -39 -39h-751q-39 0 -39 39z" />
<glyph unicode="F" horiz-adv-x="1034" d="M123 39v1376q0 39 39 39h751q39 0 39 -39v-178q0 -39 -39 -39h-514v-328h473q39 0 39 -39v-178q0 -39 -39 -39h-473v-575q0 -39 -39 -39h-198q-39 0 -39 39z" />
<glyph unicode="G" horiz-adv-x="1249" d="M123 512v389q0 276 139 425t404 149q98 0 193 -15.5t140 -29.5l48 -17q39 -6 38 -41v-174q0 -39 -41 -33q-231 53 -368 54q-276 0 -277 -318v-369q0 -296 232 -296h2q53 0 107.5 9t82.5 17l27 10v301h-207q-39 0 -39 39v179q0 39 39 38h444q39 0 39 -38v-699 q-25 -12 -69.5 -30.5t-175.5 -50t-256 -31.5q-502 0 -502 532z" />
<glyph unicode="H" horiz-adv-x="1249" d="M123 39v1376q0 39 39 39h198q39 0 39 -39v-545h451v545q0 39 39 39h198q39 0 39 -39v-1376q0 -39 -39 -39h-198q-39 0 -39 39v575h-451v-575q0 -39 -39 -39h-198q-39 0 -39 39z" />
<glyph unicode="I" horiz-adv-x="911" d="M61 39v106q0 39 39 39h217v1086h-217q-39 0 -39 39v106q0 39 39 39h711q39 0 39 -39v-106q0 -39 -39 -39h-217v-1086h217q39 0 39 -39v-106q0 -39 -39 -39h-711q-39 0 -39 39z" />
<glyph unicode="J" horiz-adv-x="768" d="M82 39v168q0 39 39 39h43q109 0 157 53t48 172v944q0 39 39 39h198q39 0 39 -39v-964q0 -451 -430 -451h-94q-39 0 -39 39z" />
<glyph unicode="K" horiz-adv-x="1126" d="M123 39v1376q0 39 39 39h198q39 0 39 -39v-1376q0 -39 -39 -39h-198q-39 0 -39 39zM401 758l375 657q23 39 51 39h228q18 0 27.5 -12t0.5 -27l-374 -657l397 -719q4 -6 4 -12q0 -7 -6 -15q-10 -12 -27 -12h-229q-33 0 -51 39z" />
<glyph unicode="L" horiz-adv-x="1034" d="M123 39v1376q0 39 39 39h198q39 0 39 -39v-1159h514q39 0 39 -39v-178q0 -39 -39 -39h-751q-39 0 -39 39z" />
<glyph unicode="M" horiz-adv-x="1566" d="M123 39v1376q0 39 39 39h225q33 0 49 -39l348 -856l346 856q16 39 50 39h225q39 0 39 -39v-1376q0 -39 -39 -39h-199q-39 0 -39 39v840l-231 -594q-16 -39 -47 -39h-211q-31 0 -47 39l-232 594v-840q0 -39 -39 -39h-198q-39 0 -39 39z" />
<glyph unicode="N" horiz-adv-x="1249" d="M123 39v1376q0 39 39 39h207q33 0 51 -39l430 -829v829q0 39 39 39h198q39 0 39 -39v-1376q0 -39 -39 -39h-206q-33 0 -52 39l-430 829v-829q0 -39 -39 -39h-198q-39 0 -39 39z" />
<glyph unicode="O" horiz-adv-x="1249" d="M123 512v430q0 256 129 394.5t372.5 138.5t372.5 -138.5t129 -394.5v-430q0 -256 -129 -394t-372.5 -138t-372.5 138t-129 394zM399 532q0 -297 225.5 -297t225.5 297v390q0 297 -225.5 297t-225.5 -297v-390z" />
<glyph unicode="P" horiz-adv-x="1187" d="M123 39v1376q0 39 39 39h442q233 0 357 -103.5t124 -337t-123.5 -337t-357.5 -103.5h-205v-534q0 -39 -39 -39h-198q-39 0 -39 39zM399 819h185q115 0 170 45t55 149.5t-55.5 149.5t-169.5 45h-185v-389z" />
<glyph unicode="Q" horiz-adv-x="1249" d="M123 512v430q0 256 129 394.5t372.5 138.5t372.5 -138.5t129 -394.5v-430q0 -219 -94 -352t-274 -168v-29q0 -117 104 -117q12 0 123 13q39 4 39 -29v-184q0 -35 -39 -41q-104 -14 -201 -15q-303 0 -303 351v53q-176 37 -267 170t-91 348zM399 532q0 -297 225.5 -297 t225.5 297v390q0 297 -225.5 297t-225.5 -297v-390z" />
<glyph unicode="R" horiz-adv-x="1187" d="M123 39v1376q0 39 39 39h452q471 0 471 -440q0 -344 -292 -420l329 -553q6 -8 6 -15q0 -6 -4 -12q-8 -14 -24 -14h-234q-23 0 -49 39l-317 534h-101v-534q0 -39 -39 -39h-198q-39 0 -39 39zM399 819h179q117 0 174 44.5t57 150.5q0 109 -54.5 151.5t-170.5 42.5h-185 v-389z" />
<glyph unicode="S" horiz-adv-x="1095" d="M102 63v187q0 37 41 31q231 -45 348 -45t166.5 38.5t49.5 128.5v41q0 61 -40 95t-120 61l-174 57q-260 84 -260 361v51q0 207 130 306.5t337 99.5q70 0 155.5 -9.5t136.5 -19.5l52 -8q39 -4 39 -39v-180q0 -37 -39 -33q-207 33 -340 33q-104 0 -149.5 -37t-45.5 -113v-31 q0 -88 121 -129l174 -57q141 -47 220 -131t79 -256v-62q0 -233 -114.5 -328t-360.5 -95q-72 0 -164 11t-147 21l-56 13q-39 4 -39 38z" />
<glyph unicode="T" horiz-adv-x="1126" d="M61 1237v178q0 39 39 39h926q39 0 39 -39v-178q0 -39 -39 -39h-324v-1159q0 -39 -38 -39h-199q-39 0 -39 39v1159h-326q-39 0 -39 39z" />
<glyph unicode="U" horiz-adv-x="1249" d="M123 532v883q0 39 39 39h198q39 0 39 -39v-883q0 -297 225 -296q226 0 226 296v883q0 39 39 39h198q39 0 39 -39v-883q0 -553 -501 -553l-1 1q-502 0 -501 552z" />
<glyph unicode="V" horiz-adv-x="1187" d="M33 1411q-1 7 -1 12q0 11 4 19q7 12 25 12h228q29 0 39 -39l266 -1022l266 1022q10 39 39 39h227q18 0 26 -12q5 -8 4 -19q0 -6 -1 -12l-377 -1372q-10 -39 -47 -39h-274q-37 0 -47 39z" />
<glyph unicode="W" horiz-adv-x="1914" d="M49 1411q-1 8 -1 14q0 29 30 29h229q33 0 39 -39l201 -1022l252 1022q10 39 45 39h227q35 0 45 -39l252 -1022l201 1022q6 39 39 39h229q30 0 30 -29q0 -6 -1 -14l-291 -1372q-6 -39 -47 -39h-273q-37 0 -47 39l-250 915l-251 -915q-10 -39 -48 -39h-272q-41 0 -47 39z " />
<glyph unicode="X" horiz-adv-x="1208" d="M22 14q-3 7 -4 14q0 8 5 15l387 700l-367 668q-8 14 -1 28.5t26 14.5h249q31 0 52 -39l235 -438l236 438q20 39 51 39h250q18 0 25.5 -14.5t-1.5 -28.5l-366 -668l387 -700q4 -7 4 -15t-3 -14q-7 -14 -26 -14h-250q-31 0 -51 39l-256 471l-256 -471q-20 -39 -51 -39h-250 q-17 0 -25 14z" />
<glyph unicode="Y" horiz-adv-x="1177" d="M39 1411q-3 7 -3 13q0 9 5 16q8 14 27 14h235q23 0 39 -39l248 -627l246 627q16 39 38 39h236q18 0 26 -14q5 -7 5 -16q0 -6 -2 -13l-412 -950v-422q0 -39 -39 -39h-199q-39 0 -38 39v422z" />
<glyph unicode="Z" horiz-adv-x="993" d="M82 39v217l498 942h-459q-39 0 -39 39v178q0 39 39 39h751q39 0 39 -39v-217l-497 -942h458q39 0 39 -39v-178q0 -39 -39 -39h-751q-39 0 -39 39z" />
<glyph unicode="[" horiz-adv-x="665" d="M123 -227v1908q0 39 39 39h444q39 0 39 -39v-147q0 -39 -39 -39h-207v-1536h207q39 0 39 -39v-147q0 -39 -39 -39h-444q-39 0 -39 39z" />
<glyph unicode="\" horiz-adv-x="870" d="M94 1411q-4 16 5.5 29.5t25.5 13.5h211q33 0 43 -37l397 -1374q4 -16 -5 -29.5t-26 -13.5h-210q-33 0 -43 37z" />
<glyph unicode="]" horiz-adv-x="665" d="M20 -80q0 39 39 39h207v1536h-207q-39 0 -39 39v147q0 39 39 39h445q39 0 39 -39v-1908q0 -39 -39 -39h-445q-39 0 -39 39v147z" />
<glyph unicode="^" horiz-adv-x="1228" d="M127 860l342 557q25 37 47 37h197q23 0 47 -37l342 -557q8 -14 -1 -27.5t-26 -13.5h-201q-23 0 -49 39l-211 336l-211 -336q-27 -39 -49 -39h-200q-16 0 -25.5 13.5t-1.5 27.5z" />
<glyph unicode="_" horiz-adv-x="1044" d="M0 -182q0 39 39 39h967q39 0 38 -39v-168q0 -39 -38 -39h-967q-39 0 -39 39v168z" />
<glyph unicode="`" horiz-adv-x="649" d="M100.5 1181.5q-6.5 14.5 1.5 28.5l117 226q18 39 55 39h252q18 0 24.5 -14.5t-3.5 -28.5l-164 -226q-31 -39 -55 -39h-203q-18 0 -24.5 14.5z" />
<glyph unicode="a" horiz-adv-x="1044" d="M92 297q0 156 96.5 236.5t272.5 80.5q104 0 184 -12v53q0 70 -36 101.5t-113 31.5q-49 0 -120 -9t-118 -17l-45 -8q-39 -4 -39 30v174q0 35 39 41q150 45 328 45q215 0 298 -94t83 -295v-616q0 -39 -39 -39h-178q-39 0 -39 39v14q-119 -73 -245 -73h-3q-326 0 -326 317z M369 307q0 -102 116 -102q68 0 160 43v168h-139q-137 0 -137 -109z" />
<glyph unicode="b" d="M123 39v1376q0 39 39 39h198q39 0 39 -39v-430q109 59 215 59q168 0 253 -98t85 -270v-287q0 -180 -101 -284.5t-300 -104.5h-389q-39 0 -39 39zM399 236h131h2q144 0 144 163v246q0 154 -135 154q-57 0 -142 -35v-528z" />
<glyph unicode="c" horiz-adv-x="819" d="M123 389v246q0 205 107.5 307t308.5 102q41 0 86 -4t69 -8l25 -6q39 -2 39 -41v-166q0 -37 -39 -33q-90 12 -162 13q-88 0 -123 -44t-35 -130v-226q0 -88 36 -131t124 -43l160 13q39 4 39 -33v-166q0 -39 -39 -41q-98 -18 -180 -18q-201 0 -308.5 102t-107.5 307z" />
<glyph unicode="d" d="M123 348v328q0 172 85 270t253 98q106 0 215 -49v420q0 39 39 39h198q39 0 39 -39v-1376q0 -39 -39 -39h-178q-39 0 -39 39v12q-123 -71 -232 -71h-3q-168 0 -253 98t-85 270zM399 379q0 -154 136 -154q57 0 141 35v512q-80 27 -141 27q-135 0 -136 -154v-266z" />
<glyph unicode="e" horiz-adv-x="1054" d="M113 475v86q0 221 110.5 352t315 131t304 -120.5t99.5 -313.5v-172q0 -39 -39 -39h-510q20 -168 201 -168q49 0 116.5 7.5t108.5 13.5l43 6q39 4 39 -33v-176q0 -37 -39 -41q-145 -28 -275 -28h-9q-465 0 -465 495zM389 598h297v29q0 92 -31.5 139t-111.5 47 q-84 0 -118 -52t-36 -163z" />
<glyph unicode="f" horiz-adv-x="624" d="M20 827v158q0 39 39 39h105v117q0 180 88 257t219 77q39 0 73 -3.5t48 -5.5l14 -4q39 -6 39 -39v-174q0 -37 -39 -35q-43 4 -71 5q-94 0 -95 -91v-104h125q39 0 39 -39v-158q0 -39 -39 -39h-125v-749q0 -39 -39 -39h-198q-39 0 -39 39v749h-105q-39 0 -39 39z" />
<glyph unicode="g" d="M123 389v266q0 180 101.5 284.5t299.5 104.5q80 0 177.5 -12t154.5 -24l57 -15q39 -4 39 -39v-923q0 -246 -93 -343.5t-310 -97.5q-74 0 -160 10.5t-135 18.5l-51 10q-39 4 -39 41v180q0 35 39 31q178 -35 299 -35q98 0 136 43t38 142v49q-109 -59 -215 -60 q-168 0 -253 98.5t-85 270.5zM399 420q0 -154 136 -154q57 0 141 35v483q-94 14 -131 15q-145 0 -146 -154v-225z" />
<glyph unicode="h" d="M123 39v1376q0 39 39 39h198q39 0 39 -39v-444q115 73 243 73h3q166 0 236.5 -90t70.5 -258v-657q0 -39 -39 -39h-198q-39 0 -39 39v616q0 133 -119 133q-68 0 -158 -43v-706q0 -39 -39 -39h-198q-39 0 -39 39z" />
<glyph unicode="i" horiz-adv-x="522" d="M123 39v946q0 39 39 39h198q39 0 39 -39v-946q0 -39 -39 -39h-198q-39 0 -39 39zM123 1217v198q0 39 39 39h198q39 0 39 -39v-198q0 -39 -39 -39h-198q-39 0 -39 39z" />
<glyph unicode="j" horiz-adv-x="522" d="M-41 -197q0 35 39 35q37 -2 55 -2q70 0 70 78v1071q0 39 39 39h198q39 0 39 -39v-1118q0 -147 -60 -212t-183 -65l-158 9q-39 6 -39 39v165zM123 1217v198q0 39 39 39h198q39 0 39 -39v-198q0 -39 -39 -39h-198q-39 0 -39 39z" />
<glyph unicode="k" horiz-adv-x="952" d="M123 39v1376q0 39 39 39h198q39 0 39 -39v-1376q0 -39 -39 -39h-198q-39 0 -39 39zM401 573l213 412q20 39 52 39h221q16 0 24.5 -12.5t-0.5 -26.5l-211 -405l236 -541q3 -6 3 -13q0 -8 -4 -14q-7 -12 -24 -12h-221q-35 0 -51 39z" />
<glyph unicode="l" horiz-adv-x="522" d="M123 39v1376q0 39 39 39h198q39 0 39 -39v-1376q0 -39 -39 -39h-198q-39 0 -39 39z" />
<glyph unicode="m" horiz-adv-x="1628" d="M123 39v946q0 39 39 39h178q39 0 39 -39v-29q125 88 266 88q178 0 254 -114q136 114 296 114h3q166 0 236.5 -90t70.5 -258v-657q0 -39 -39 -39h-198q-39 0 -39 39v616q0 133 -119 133q-68 0 -160 -51q0 -6 1 -19t1 -22v-657q0 -39 -39 -39h-198q-39 0 -39 39v616 q0 133 -119 133q-68 0 -158 -43v-706q0 -39 -39 -39h-198q-39 0 -39 39z" />
<glyph unicode="n" d="M123 39v946q0 39 39 39h178q39 0 39 -39v-29q125 88 266 88q166 0 236.5 -90t70.5 -258v-657q0 -39 -39 -39h-198q-39 0 -39 39v616q0 133 -119 133q-68 0 -158 -43v-706q0 -39 -39 -39h-198q-39 0 -39 39z" />
<glyph unicode="o" horiz-adv-x="1077" d="M123 389v246q0 205 107.5 307t308 102t308 -102t107.5 -307v-246q0 -205 -107.5 -307t-308 -102t-308 102t-107.5 307zM399 385q0 -164 139.5 -164t139.5 164v256q0 164 -139.5 164t-139.5 -164v-256z" />
<glyph unicode="p" d="M123 -350v1335q0 39 39 39h178q39 0 39 -39v-12q123 71 232 71h3q168 0 253 -98t85 -270v-287q0 -180 -101 -284.5t-300 -104.5q-47 0 -152 14v-364q0 -39 -39 -39h-198q-39 0 -39 39zM399 236h131h2q144 0 144 163v246q0 154 -135 154q-57 0 -142 -35v-528z" />
<glyph unicode="q" d="M123 348v307q0 180 101.5 284.5t299.5 104.5q80 0 177.5 -12t154.5 -24l57 -15q39 -4 39 -39v-1304q0 -39 -39 -39h-198q-39 0 -39 39v389q-109 -59 -215 -59q-168 0 -253 98t-85 270zM399 379q0 -154 136 -154q57 0 141 35v524q-94 14 -131 15q-145 0 -146 -154v-266z " />
<glyph unicode="r" horiz-adv-x="675" d="M123 39v946q0 39 39 39h178q39 0 39 -39v-78q53 137 186 137l45 -4q35 -2 35 -39v-237q0 -18 -8 -28.5t-25 -8.5q-12 2 -20 2q-113 0 -193 -121v-569q0 -39 -39 -39h-198q-39 0 -39 39z" />
<glyph unicode="s" horiz-adv-x="993" d="M92 68v170q0 39 39 32q209 -45 330 -45q86 0 119.5 18.5t33.5 57.5q0 37 -32.5 52.5t-100.5 23.5l-71 10q-59 8 -103.5 23.5t-95.5 47t-80 94t-29 150.5q0 176 110 259t296 83q74 0 149.5 -8t114.5 -16l39 -10q39 -8 39 -39v-168q0 -35 -39 -33q-168 29 -289 29 q-80 0 -111.5 -16.5t-31.5 -55.5q0 -23 18.5 -37t39 -18t61.5 -10l86 -13q61 -8 108 -25.5t96.5 -50t76 -94t26.5 -147.5q0 -193 -100.5 -272.5t-305.5 -79.5q-78 0 -166 12t-139 24l-49 13q-39 8 -39 39z" />
<glyph unicode="t" horiz-adv-x="727" d="M20 827v158q0 39 39 39h105v227q0 39 39 39h198q39 0 39 -39v-227h228q39 0 39 -39v-158q0 -39 -39 -39h-228v-436q0 -116 103 -116h2l123 12q39 4 39 -29v-184q0 -35 -39 -41q-104 -14 -201 -14q-303 0 -303 337v471h-105q-39 0 -39 39z" />
<glyph unicode="u" d="M123 328v657q0 39 39 39h198q39 0 39 -39v-616q0 -133 119 -133q68 0 158 43v706q0 39 39 39h198q39 0 39 -39v-946q0 -39 -39 -39h-178q-39 0 -39 39v29q-125 -88 -266 -88q-166 0 -236.5 90t-70.5 258z" />
<glyph unicode="v" horiz-adv-x="1024" d="M33 983q-1 5 -1 9q0 12 7 20q10 12 27 12h217q35 0 45 -37l184 -655l184 655q10 37 45 37h217q16 0 26 -12q8 -9 8 -20q0 -4 -1 -9l-282 -944q-10 -39 -47 -39h-300q-37 0 -47 39z" />
<glyph unicode="w" horiz-adv-x="1587" d="M49 983q-1 4 -1 9q0 12 8 20q10 12 26 12h219q39 0 45 -39l125 -653l164 653q10 39 47 39h223q37 0 47 -39l164 -653l127 655q6 37 45 37h217q17 0 27 -12q8 -9 7 -20q0 -4 -1 -9l-209 -944q-6 -39 -47 -39h-295q-35 0 -45 39l-147 530l-150 -530q-10 -39 -47 -39h-295 q-39 0 -45 39z" />
<glyph unicode="x" horiz-adv-x="983" d="M22 12q-4 6 -4 13t5 16l270 487l-250 455q-8 16 0 28.5t25 12.5h254q29 0 47 -37l123 -237l122 237q18 37 48 37h253q16 0 24.5 -12.5t0.5 -28.5l-250 -455l271 -487q4 -8 4 -15q-1 -8 -5 -14q-8 -12 -24 -12h-256q-29 0 -47 37l-141 270l-142 -270q-18 -37 -47 -37h-256 q-17 0 -25 12z" />
<glyph unicode="y" horiz-adv-x="1024" d="M33 985q-1 5 -1 9q0 10 7 18q10 12 27 12h217q35 0 45 -35l174 -567l192 565q10 37 45 37h217q16 0 26 -12q8 -10 8 -20q0 -5 -1 -9l-454 -1335q-10 -37 -43 -37h-222q-16 0 -25 12t-5 29l112 332z" />
<glyph unicode="z" horiz-adv-x="952" d="M82 39v207l387 532h-348q-39 0 -39 39v168q0 39 39 39h710q39 0 39 -39v-207l-387 -532h348q39 0 39 -39v-168q0 -39 -39 -39h-710q-39 0 -39 39z" />
<glyph unicode="{" horiz-adv-x="727" d="M20 653v148q0 39 35 39h13q66 0 91 41t25 123v327q0 207 98.5 298t321.5 91h64q39 0 39 -39v-147q0 -39 -39 -39h-64q-82 0 -112.5 -41t-30.5 -123v-368q0 -197 -119 -236q119 -37 119 -235v-369q0 -82 30.5 -123t112.5 -41h64q39 0 39 -39v-147q0 -39 -39 -39h-64 q-221 0 -320.5 92t-99.5 297v328q0 84 -24.5 123.5t-91.5 39.5h-13q-35 0 -35 39z" />
<glyph unicode="|" horiz-adv-x="522" d="M123 -166v1786q0 39 39 39h198q39 0 39 -39v-1786q0 -39 -39 -39h-198q-39 0 -39 39z" />
<glyph unicode="}" horiz-adv-x="727" d="M20 -80q0 39 39 39h64q82 0 112.5 41t30.5 123v369q0 197 119 235q-119 37 -119 236v368q0 82 -30.5 123t-112.5 41h-64q-39 0 -39 39v147q0 39 39 39h64q221 0 320.5 -92t99.5 -297v-327q0 -82 25.5 -123t90.5 -41h13q35 0 35 -39v-148q0 -39 -35 -39h-13 q-68 0 -92 -39.5t-24 -123.5v-328q0 -207 -98.5 -298t-321.5 -91h-64q-39 0 -39 39v147z" />
<glyph unicode="~" d="M102 612v168q0 31 37 45q86 45 189 45q74 0 216 -30.5t208 -30.5q27 0 72.5 9t76.5 20l33 10q39 8 39 -27v-168q0 -31 -37 -45q-86 -45 -188 -45q-74 0 -214.5 31t-209.5 31q-27 0 -73 -9.5t-79 -19.5l-31 -10q-39 -8 -39 26z" />
<glyph unicode="&#xa1;" horiz-adv-x="522" d="M113 807v219q0 39 39 39h219q39 0 39 -39v-219q0 -39 -39 -39h-219q-39 0 -39 39zM123 -350v895q0 39 39 39h198q39 0 39 -39v-895q0 -39 -39 -39h-198q-39 0 -39 39z" />
<glyph unicode="&#xa2;" horiz-adv-x="1024" d="M174 399v228q0 324 266 397v207q0 39 39 39h199q39 0 39 -39v-193l94 -12q39 -6 39 -41v-166q0 -37 -39 -33q-102 12 -182 13q-178 0 -178 -183v-206q0 -184 180 -185l180 13q39 4 39 -33v-166q0 -35 -39 -41q-25 -4 -94 -12v-193q0 -39 -39 -39h-199q-39 0 -39 39v209 q-266 76 -266 397z" />
<glyph unicode="&#xa3;" horiz-adv-x="1024" d="M14 664l15 157q4 39 39 39h116v135q0 479 457 480q72 0 142.5 -10.5t105.5 -20.5l35 -10q39 -6 39 -45v-179q0 -33 -39 -28q-154 37 -279 37q-61 0 -100 -18.5t-56.5 -54.5t-22.5 -69t-5 -82v-135h403q37 0 33 -39l-14 -157q-4 -39 -39 -39h-383v-369h463q39 0 39 -39 v-178q0 -39 -39 -39h-701q-39 0 -39 39v586h-137q-37 0 -33 39z" />
<glyph unicode="&#xa4;" horiz-adv-x="1024" d="M39 362q-27 27 0 56l102 102q-45 86 -45 197q0 115 45 196l-102 103q-27 29 0 55l119 117q27 29 55 0l113 -113q86 33 186 33q98 0 184 -33l113 113q27 29 55 0l119 -117q29 -27 0 -55l-102 -103q47 -84 47 -196.5t-47 -196.5l102 -102q29 -29 0 -56l-119 -116 q-29 -29 -55 0l-113 112q-86 -33 -184 -32q-100 0 -186 32l-113 -112q-29 -29 -55 0zM373 716.5q0 -155.5 139 -155.5t139 155.5t-139 155.5t-139 -155.5z" />
<glyph unicode="&#xa5;" horiz-adv-x="1024" d="M37 1411q-12 43 26 43h238q29 0 39 -39l174 -627l170 627q10 39 39 39h235q18 0 25.5 -12.5t3.5 -30.5l-162 -520h117q39 0 39 -39v-158q0 -39 -39 -39h-190l-39 -123h229q39 0 39 -38v-158q0 -39 -39 -39h-291v-258q0 -39 -39 -39h-198q-39 0 -39 39v258h-293 q-39 0 -39 39v158q0 39 39 38h231l-39 123h-192q-39 0 -39 39v158q0 39 39 39h119z" />
<glyph unicode="&#xa6;" horiz-adv-x="522" d="M123 -166v762q0 39 39 39h198q39 0 39 -39v-762q0 -39 -39 -39h-198q-39 0 -39 39zM123 858v762q0 39 39 39h198q39 0 39 -39v-762q0 -39 -39 -39h-198q-39 0 -39 39z" />
<glyph unicode="&#xa7;" horiz-adv-x="1034" d="M113 33q0 39 39 33q219 -45 329 -46q154 0 154 82v29q0 18 -8.5 30.5t-33 23t-37.5 14.5t-54 14l-72 18q-55 14 -81.5 22.5t-78 34t-77 56.5t-48 85t-22.5 126v41q0 158 129 242q-129 78 -129 254v41q0 176 109.5 259t295.5 83q74 0 150 -8.5t115 -16.5l38 -10 q39 -8 39 -39v-168q0 -35 -39 -33q-162 29 -288 29q-143 0 -144 -78v-29q0 -20 17.5 -34.5t32 -19.5t53.5 -13q10 -2 16 -4l86 -21q66 -16 109 -32.5t94 -51.5t77.5 -95t26.5 -146v-64q0 -166 -108 -231q109 -78 108 -242v-41q0 -193 -100 -272.5t-305 -79.5q-80 0 -168 12 t-137 25l-49 12q-39 8 -39 39v170zM399 614q0 -82 119 -110l53 -12q64 24 64 98v61q0 47 -34 70.5t-99 38.5l-29 6q-74 -33 -74 -104v-48z" />
<glyph unicode="&#xa8;" horiz-adv-x="931" d="M102 1217v198q0 39 39 39h199q39 0 39 -39v-198q0 -39 -39 -39h-199q-39 0 -39 39zM553 1217v198q0 39 39 39h199q39 0 38 -39v-198q0 -39 -38 -39h-199q-39 0 -39 39z" />
<glyph unicode="&#xa9;" horiz-adv-x="1638" d="M123 645v164q0 328 190.5 497t506 169t506 -169t190.5 -497v-164q0 -328 -190.5 -496.5t-506 -168.5t-506 168.5t-190.5 496.5zM420 655q0 -410 399.5 -410t399.5 410v144q0 410 -399.5 409.5t-399.5 -409.5v-144zM512 707v41q0 174 92 271t266 97q35 0 74 -4t60 -8 l22 -4q39 -8 39 -39v-119q0 -35 -39 -33q-66 12 -145 13q-154 0 -154 -174v-41q0 -174 154 -175l145 13q39 2 39 -33v-119q0 -31 -39 -39q-80 -16 -156 -16q-174 0 -266 97t-92 272z" />
<glyph unicode="&#xaa;" horiz-adv-x="1064" d="M113 727q0 156 96 236.5t272 80.5q104 0 185 -12v53q0 70 -36 102t-114 32q-49 0 -119.5 -9.5t-117.5 -17.5l-46 -8q-39 -4 -38 30v175q0 35 38 41q150 45 328 45q215 0 298 -94.5t83 -295.5v-616q0 -39 -39 -39h-178q-39 0 -39 39v14q-121 -74 -248 -73q-326 0 -325 317 zM133 39v168q0 39 39 39h731q39 0 39 -39v-168q0 -39 -39 -39h-731q-39 0 -39 39zM389 737q0 -102 117 -102q68 0 160 43v168h-140q-137 0 -137 -109z" />
<glyph unicode="&#xab;" horiz-adv-x="1146" d="M129 627q-27 51 0 98l156 281q18 39 49 38h221q16 0 25.5 -12t1.5 -26l-183 -330l183 -330q8 -14 -1.5 -26.5t-25.5 -12.5h-221q-31 0 -49 39zM569 627q-27 51 0 98l156 281q20 39 49 38h221q16 0 25.5 -12t1.5 -26l-182 -330l182 -330q8 -14 -1 -26.5t-26 -12.5h-221 q-29 0 -49 39z" />
<glyph unicode="&#xac;" d="M102 633v168q0 39 39 39h793q39 0 39 -39v-496q0 -39 -39 -39h-178q-39 0 -39 39v289h-576q-39 0 -39 39z" />
<glyph unicode="&#xad;" horiz-adv-x="716" d="M102 633v168q0 39 39 39h434q39 0 39 -39v-168q0 -39 -39 -39h-434q-39 0 -39 39z" />
<glyph unicode="&#xae;" horiz-adv-x="1638" d="M123 645v164q0 328 190.5 497t506 169t506 -169t190.5 -497v-164q0 -328 -190.5 -496.5t-506 -168.5t-506 168.5t-190.5 496.5zM420 655q0 -410 399.5 -410t399.5 410v144q0 410 -399.5 409.5t-399.5 -409.5v-144zM573 397v660q0 39 39 39h222q133 0 212.5 -49.5 t79.5 -186.5q0 -184 -168 -223l144 -238q10 -14 2 -27.5t-25 -13.5h-129q-27 0 -51 37l-137 230h-14v-228q0 -39 -39 -39h-97q-39 0 -39 39zM748 778h86q57 0 87.5 16.5t30.5 65.5q0 51 -29.5 66.5t-88.5 15.5h-86v-164z" />
<glyph unicode="&#xaf;" horiz-adv-x="727" d="M102 1257v158q0 39 39 39h445q39 0 39 -39v-158q0 -39 -39 -38h-445q-39 0 -39 38z" />
<glyph unicode="&#xb0;" horiz-adv-x="1077" d="M123 1014v59q0 184 112.5 293t303 109t303 -109t112.5 -293v-59q0 -184 -112.5 -293t-303 -109t-303 108.5t-112.5 293.5zM399 1004q0 -156 139.5 -156t139.5 156v79q0 156 -139.5 156t-139.5 -156v-79z" />
<glyph unicode="&#xb1;" d="M102 39v168q0 39 39 39h793q39 0 39 -39v-168q0 -39 -39 -39h-793q-39 0 -39 39zM102 653v168q0 39 39 39h269v268q0 39 39 39h178q39 0 39 -39v-268h268q39 0 39 -39v-168q0 -39 -39 -39h-268v-268q0 -39 -39 -39h-178q-39 0 -39 39v268h-269q-39 0 -39 39z" />
<glyph unicode="&#xb2;" horiz-adv-x="696" d="M49 621v176q0 84 36 145.5t86 91t100.5 50t86 41t35.5 46.5v35q0 47 -76 47q-35 0 -92 -5t-98 -11l-39 -4q-39 -6 -39 31v141q0 39 39 43q137 27 242 27q319 0 319 -256v-48q0 -74 -35.5 -128t-86 -82.5t-100.5 -50t-86 -45t-36 -54.5v-8h305q39 0 39 -39v-143 q0 -39 -39 -39h-522q-39 0 -39 39z" />
<glyph unicode="&#xb3;" horiz-adv-x="696" d="M33 627v145q0 37 39 31q150 -20 227 -21q90 0 90 66v18q0 53 -94 54h-150q-39 0 -39 38v144q0 39 39 39h134q86 0 86 49v20q0 43 -78 43q-35 0 -88.5 -5t-89.5 -11l-37 -4q-39 -4 -39 33v143q0 35 39 39q123 27 235 27q147 0 230.5 -51.5t83.5 -182.5v-47q0 -94 -80 -150 q104 -53 104 -170v-67q0 -246 -332 -246q-45 0 -105.5 6t-96.5 15l-39 6q-39 4 -39 39z" />
<glyph unicode="&#xb4;" horiz-adv-x="649" d="M98 1460.5q6 14.5 25 14.5h252q35 0 55 -39l117 -226q8 -14 2 -28.5t-25 -14.5h-202q-25 0 -56 39l-164 226q-10 14 -4 28.5z" />
<glyph unicode="&#xb5;" d="M123 -350v1335q0 39 39 39h198q39 0 39 -39v-616q0 -133 119 -133q68 0 158 43v706q0 39 39 39h198q39 0 39 -39v-946q0 -39 -39 -39h-178q-39 0 -39 39v29q-125 -88 -266 -88h-31v-330q0 -39 -39 -39h-198q-39 0 -39 39z" />
<glyph unicode="&#xb6;" horiz-adv-x="1402" d="M102 1013.5q0 440.5 492 440.5h268q39 0 39 -39v-1376q0 -39 -39 -39h-198q-39 0 -39 39v534h-31q-492 0 -492 440.5zM379 1013.5q0 -194.5 205 -194.5h41v389h-41q-205 0 -205 -194.5zM1004 39v1376q0 39 38 39h199q39 0 39 -39v-1376q0 -39 -39 -39h-199q-39 0 -38 39z " />
<glyph unicode="&#xb7;" horiz-adv-x="481" d="M102 633v198q0 39 39 39h199q39 0 39 -39v-198q0 -39 -39 -39h-199q-39 0 -39 39z" />
<glyph unicode="&#xb8;" horiz-adv-x="604" d="M102 -301q0 35 37 35h41q76 0 76 53q0 49 -70 49h-32q-35 0 -29 39l45 207h184l-30 -139h8q170 -1 170 -179q0 -174 -211 -174l-150 15q-39 4 -39 39v55z" />
<glyph unicode="&#xb9;" horiz-adv-x="696" d="M61 1204v142q0 37 37 47l201 61h176q39 0 39 -39v-794q0 -39 -39 -39h-178q-39 0 -39 39v585l-158 -32q-39 -6 -39 30z" />
<glyph unicode="&#xba;" horiz-adv-x="1077" d="M123 819v246q0 205 107.5 307.5t308 102.5t308 -102.5t107.5 -307.5v-246q0 -205 -107.5 -307t-308 -102t-308 102t-107.5 307zM143 39v168q0 39 39 39h713q39 0 39 -39v-168q0 -39 -39 -39h-713q-39 0 -39 39zM399 815q0 -164 139.5 -164t139.5 164v256 q0 164 -139.5 164t-139.5 -164v-256z" />
<glyph unicode="&#xbb;" horiz-adv-x="1146" d="M125 346l182 330l-182 330q-8 14 1 26t26 12h221q29 0 49 -38l156 -281q27 -47 0 -98l-156 -281q-20 -39 -49 -39h-221q-16 0 -25.5 12.5t-1.5 26.5zM565 346l183 330l-183 330q-8 14 1 26t26 12h221q31 0 49 -38l156 -281q27 -47 0 -98l-156 -281q-18 -39 -49 -39h-221 q-16 0 -25.5 12.5t-1.5 26.5z" />
<glyph unicode="&#xbc;" horiz-adv-x="1832" d="M61 1204v142q0 37 37 47l201 61h176q39 0 39 -39v-794q0 -39 -39 -39h-178q-39 0 -39 39v585l-158 -32q-39 -6 -39 30zM428 39l670 1376q20 39 51 39h229q16 0 25.5 -12.5t1.5 -26.5l-670 -1376q-18 -39 -51 -39h-229q-16 0 -25.5 12.5t-1.5 26.5zM1157 156v153 q98 168 98 400v125q0 39 39 38h179q39 0 38 -38v-125q0 -80 -3 -131.5t-21.5 -118t-50.5 -121.5h69q41 80 41 248v14q0 39 39 39h146q39 0 38 -39v-262h5q39 0 38 -39v-143q0 -39 -38 -39h-5v-78q0 -39 -38 -39h-179q-39 0 -39 39v78h-317q-39 0 -39 39z" />
<glyph unicode="&#xbd;" horiz-adv-x="1832" d="M61 1204v142q0 37 37 47l201 61h176q39 0 39 -39v-794q0 -39 -39 -39h-178q-39 0 -39 39v585l-158 -32q-39 -6 -39 30zM428 39l670 1376q20 39 51 39h229q16 0 25.5 -12.5t1.5 -26.5l-670 -1376q-18 -39 -51 -39h-229q-16 0 -25.5 12.5t-1.5 26.5zM1186 39v176 q0 104 54 173t117.5 92.5t118 51t54.5 58.5v35q0 47 -76 47q-35 0 -92 -5t-96 -12l-41 -4q-39 -6 -39 31v141q0 39 39 43q137 27 241 27q319 0 320 -256v-47q0 -74 -36 -128t-86 -83t-100.5 -50.5t-86 -45t-35.5 -54.5v-8h305q39 0 39 -39v-143q0 -39 -39 -39h-522 q-39 0 -39 39z" />
<glyph unicode="&#xbe;" horiz-adv-x="1832" d="M33 627v145q0 37 39 31q150 -20 227 -21q90 0 90 66v18q0 53 -94 54h-150q-39 0 -39 38v144q0 39 39 39h134q86 0 86 49v20q0 43 -78 43q-35 0 -88.5 -5t-89.5 -11l-37 -4q-39 -4 -39 33v143q0 35 39 39q123 27 235 27q147 0 230.5 -51.5t83.5 -182.5v-47q0 -94 -80 -150 q104 -53 104 -170v-67q0 -246 -332 -246q-45 0 -105.5 6t-96.5 15l-39 6q-39 4 -39 39zM428 39l670 1376q20 39 51 39h229q16 0 25.5 -12.5t1.5 -26.5l-670 -1376q-18 -39 -51 -39h-229q-16 0 -25.5 12.5t-1.5 26.5zM1157 156v153q98 168 98 400v125q0 39 39 38h179 q39 0 38 -38v-125q0 -80 -3 -131.5t-21.5 -118t-50.5 -121.5h69q41 80 41 248v14q0 39 39 39h146q39 0 38 -39v-262h5q39 0 38 -39v-143q0 -39 -38 -39h-5v-78q0 -39 -38 -39h-179q-39 0 -39 39v78h-317q-39 0 -39 39z" />
<glyph unicode="&#xbf;" horiz-adv-x="931" d="M102 -47q0 184 131 291l50 39q39 33 56 50t33.5 54t16.5 90v68q0 39 39 39h199q39 0 39 -39v-68q0 -141 -34 -215t-110 -129l-53 -39q-2 -2 -14.5 -10t-15.5 -11t-13 -11.5t-13 -11.5t-10.5 -11t-10.5 -14.5t-7 -15.5t-5 -18t-1 -20v-20q0 -104 151 -105q47 0 118 8.5 t118 16.5l45 8q39 4 39 -31v-180q0 -35 -39 -39q-162 -39 -313 -39q-395 0 -396 332v31zM379 807v219q0 39 39 39h219q39 0 39 -39v-219q0 -39 -39 -39h-219q-39 0 -39 39z" />
<glyph unicode="&#xc0;" horiz-adv-x="1239" d="M33 41l405 1374q10 39 47 39h269q37 0 47 -39l405 -1374q4 -16 -4 -28.5t-24 -12.5h-224q-33 0 -43 39l-57 207h-469l-57 -207q-10 -39 -43 -39h-224q-16 0 -24 12.5t-4 28.5zM293 1849.5q6 14.5 24 14.5h252q37 0 56 -39l116 -226q8 -14 2 -28.5t-24 -14.5h-203 q-25 0 -55 39l-164 226q-10 14 -4 28.5zM457 502h325l-161 590z" />
<glyph unicode="&#xc1;" horiz-adv-x="1239" d="M33 41l405 1374q10 39 47 39h269q37 0 47 -39l405 -1374q4 -16 -4 -28.5t-24 -12.5h-224q-33 0 -43 39l-57 207h-469l-57 -207q-10 -39 -43 -39h-224q-16 0 -24 12.5t-4 28.5zM457 502h325l-161 590zM512.5 1570.5q-6.5 14.5 1.5 28.5l117 226q20 39 55 39h252 q18 0 24 -14.5t-4 -28.5l-163 -226q-31 -39 -56 -39h-202q-18 0 -24.5 14.5z" />
<glyph unicode="&#xc2;" horiz-adv-x="1239" d="M33 41l405 1374q10 39 47 39h269q37 0 47 -39l405 -1374q4 -16 -4 -28.5t-24 -12.5h-224q-33 0 -43 39l-57 207h-469l-57 -207q-10 -39 -43 -39h-224q-16 0 -24 12.5t-4 28.5zM303 1573v176q0 20 39 39l227 115q53 27 105 0l225 -115q39 -18 39 -39v-176 q0 -16 -11.5 -24.5t-27.5 -2.5l-278 119l-279 -119q-16 -6 -27.5 2t-11.5 25zM457 502h325l-161 590z" />
<glyph unicode="&#xc3;" horiz-adv-x="1239" d="M33 41l405 1374q10 39 47 39h269q37 0 47 -39l405 -1374q4 -16 -4 -28.5t-24 -12.5h-224q-33 0 -43 39l-57 207h-469l-57 -207q-10 -39 -43 -39h-224q-16 0 -24 12.5t-4 28.5zM303 1604v147q0 31 39 66q53 45 133 45q70 0 165 -37t124 -37q25 0 57.5 12t52.5 25l21 12 q16 6 29.5 -1t13.5 -24v-145q0 -37 -39 -65q-53 -45 -133 -46q-55 0 -153.5 37t-135.5 37q-25 0 -58.5 -12t-53.5 -25l-21 -12q-16 -6 -28.5 0t-12.5 23zM457 502h325l-161 590z" />
<glyph unicode="&#xc4;" horiz-adv-x="1239" d="M33 41l405 1374q10 39 47 39h269q37 0 47 -39l405 -1374q4 -16 -4 -28.5t-24 -12.5h-224q-33 0 -43 39l-57 207h-469l-57 -207q-10 -39 -43 -39h-224q-16 0 -24 12.5t-4 28.5zM256 1575v199q0 39 39 38h199q39 0 38 -38v-199q0 -39 -38 -39h-199q-39 0 -39 39zM457 502 h325l-161 590zM707 1575v199q0 39 38 38h199q39 0 39 -38v-199q0 -39 -39 -39h-199q-39 0 -38 39z" />
<glyph unicode="&#xc5;" horiz-adv-x="1239" d="M33 41l387 1313q-55 59 -55 151q0 104 68.5 165t187 61t187.5 -60.5t69 -165.5q0 -92 -58 -153l387 -1311q4 -16 -4 -28.5t-24 -12.5h-224q-33 0 -43 39l-57 207h-469l-57 -207q-10 -39 -43 -39h-224q-16 0 -24 12.5t-4 28.5zM457 502h325l-161 590zM539 1505 q0 -92 81.5 -92t81.5 92t-81.5 92t-81.5 -92z" />
<glyph unicode="&#xc6;" horiz-adv-x="1617" d="M37 41l532 1374q16 39 41 39h887q39 0 39 -39v-178q0 -39 -39 -39h-412v-328h371q39 0 39 -39v-178q0 -39 -39 -39h-371v-358h412q39 0 39 -39v-178q0 -39 -39 -39h-649q-39 0 -39 39v237h-375l-90 -237q-16 -39 -39 -39h-242q-16 0 -24 12.5t-2 28.5zM530 532h279v666 h-25z" />
<glyph unicode="&#xc7;" horiz-adv-x="972" d="M123 512v430q0 256 129 394.5t373 138.5q49 0 105 -6.5t89 -10.5l33 -6q39 -4 39 -41v-182q0 -37 -41 -33q-133 16 -225 16q-225 0 -226 -290v-390q0 -139 52.5 -214.5t183.5 -75.5q41 0 95 4t89 8l33 6q39 4 39 -33v-184q0 -37 -39 -41q-119 -23 -227 -22h-21l-8 -37h8 q170 0 170 -179q0 -174 -211 -174l-149 15q-39 4 -39 39v55q0 35 37 35h41q76 0 75 53q0 49 -69 49h-33q-35 0 -29 39l29 133q-303 100 -303 504z" />
<glyph unicode="&#xc8;" horiz-adv-x="1034" d="M123 39v1376q0 39 39 39h751q39 0 39 -39v-178q0 -39 -39 -39h-514v-328h473q39 0 39 -39v-178q0 -39 -39 -39h-473v-358h514q39 0 39 -39v-178q0 -39 -39 -39h-751q-39 0 -39 39zM289 1849.5q6 14.5 24 14.5h252q37 0 56 -39l116 -226q8 -14 2 -28.5t-24 -14.5h-203 q-25 0 -55 39l-164 226q-10 14 -4 28.5z" />
<glyph unicode="&#xc9;" horiz-adv-x="1034" d="M123 39v1376q0 39 39 39h751q39 0 39 -39v-178q0 -39 -39 -39h-514v-328h473q39 0 39 -39v-178q0 -39 -39 -39h-473v-358h514q39 0 39 -39v-178q0 -39 -39 -39h-751q-39 0 -39 39zM409.5 1570.5q-6.5 14.5 2.5 28.5l116 226q20 39 56 39h252q18 0 24 -14.5t-4 -28.5 l-164 -226q-31 -39 -55 -39h-203q-18 0 -24.5 14.5z" />
<glyph unicode="&#xca;" horiz-adv-x="1034" d="M123 39v1376q0 39 39 39h751q39 0 39 -39v-178q0 -39 -39 -39h-514v-328h473q39 0 39 -39v-178q0 -39 -39 -39h-473v-358h514q39 0 39 -39v-178q0 -39 -39 -39h-751q-39 0 -39 39zM221 1573v176q0 20 39 39l227 115q53 27 105 0l225 -115q39 -18 39 -39v-176 q0 -16 -11 -24.5t-28 -2.5l-278 119l-279 -119q-16 -6 -27.5 2t-11.5 25z" />
<glyph unicode="&#xcb;" horiz-adv-x="1034" d="M123 39v1376q0 39 39 39h751q39 0 39 -39v-178q0 -39 -39 -39h-514v-328h473q39 0 39 -39v-178q0 -39 -39 -39h-473v-358h514q39 0 39 -39v-178q0 -39 -39 -39h-751q-39 0 -39 39zM174 1575v199q0 39 39 38h199q39 0 39 -38v-199q0 -39 -39 -39h-199q-39 0 -39 39z M625 1575v199q0 39 39 38h198q39 0 39 -38v-199q0 -39 -39 -39h-198q-39 0 -39 39z" />
<glyph unicode="&#xcc;" horiz-adv-x="911" d="M61 39v106q0 39 39 39h217v1086h-217q-39 0 -39 39v106q0 39 39 39h711q39 0 39 -39v-106q0 -39 -39 -39h-217v-1086h217q39 0 39 -39v-106q0 -39 -39 -39h-711q-39 0 -39 39zM133 1849.5q6 14.5 25 14.5h252q37 0 55 -39l117 -226q8 -14 2 -28.5t-25 -14.5h-203 q-25 0 -55 39l-164 226q-10 14 -4 28.5z" />
<glyph unicode="&#xcd;" horiz-adv-x="911" d="M61 39v106q0 39 39 39h217v1086h-217q-39 0 -39 39v106q0 39 39 39h711q39 0 39 -39v-106q0 -39 -39 -39h-217v-1086h217q39 0 39 -39v-106q0 -39 -39 -39h-711q-39 0 -39 39zM342.5 1570.5q-6.5 14.5 1.5 28.5l117 226q18 39 55 39h252q18 0 24 -14.5t-4 -28.5 l-163 -226q-31 -39 -56 -39h-202q-18 0 -24.5 14.5z" />
<glyph unicode="&#xce;" horiz-adv-x="911" d="M61 39v106q0 39 39 39h217v1086h-217q-39 0 -39 39v106q0 39 39 39h711q39 0 39 -39v-106q0 -39 -39 -39h-217v-1086h217q39 0 39 -39v-106q0 -39 -39 -39h-711q-39 0 -39 39zM139 1573v176q0 20 39 39l228 115q53 27 104 0l225 -115q39 -18 39 -39v-176q0 -16 -11 -24.5 t-28 -2.5l-278 119l-279 -119q-16 -6 -27.5 2t-11.5 25z" />
<glyph unicode="&#xcf;" horiz-adv-x="911" d="M61 39v106q0 39 39 39h217v1086h-217q-39 0 -39 39v106q0 39 39 39h711q39 0 39 -39v-106q0 -39 -39 -39h-217v-1086h217q39 0 39 -39v-106q0 -39 -39 -39h-711q-39 0 -39 39zM92 1575v199q0 39 39 38h199q39 0 39 -38v-199q0 -39 -39 -39h-199q-39 0 -39 39zM543 1575 v199q0 39 39 38h198q39 0 39 -38v-199q0 -39 -39 -39h-198q-39 0 -39 39z" />
<glyph unicode="&#xd0;" horiz-adv-x="1249" d="M123 39v1376q0 39 39 39h463q244 0 372.5 -138t128.5 -394v-390q0 -256 -129 -394t-372 -138h-463q-39 0 -39 39zM399 256h226q225 0 225 297v348q0 297 -225 297h-226v-328h289q39 0 39 -39v-178q0 -39 -39 -39h-289v-358z" />
<glyph unicode="&#xd1;" horiz-adv-x="1249" d="M123 39v1376q0 39 39 39h207q33 0 51 -39l430 -829v829q0 39 39 39h198q39 0 39 -39v-1376q0 -39 -39 -39h-206q-33 0 -52 39l-430 829v-829q0 -39 -39 -39h-198q-39 0 -39 39zM307 1604v147q0 31 39 66q53 45 133 45q70 0 165 -37t124 -37q25 0 57.5 12t53.5 25l20 12 q16 6 29.5 -1t13.5 -24v-145q0 -37 -39 -65q-53 -45 -133 -46q-55 0 -153.5 37t-135.5 37q-25 0 -58.5 -12t-53.5 -25l-21 -12q-16 -6 -28.5 0t-12.5 23z" />
<glyph unicode="&#xd2;" horiz-adv-x="1249" d="M123 512v430q0 256 129 394.5t372.5 138.5t372.5 -138.5t129 -394.5v-430q0 -256 -129 -394t-372.5 -138t-372.5 138t-129 394zM301 1849.5q6 14.5 25 14.5h252q37 0 55 -39l117 -226q8 -14 1.5 -28.5t-24.5 -14.5h-203q-25 0 -55 39l-164 226q-10 14 -4 28.5zM399 532 q0 -297 225.5 -297t225.5 297v390q0 297 -225.5 297t-225.5 -297v-390z" />
<glyph unicode="&#xd3;" horiz-adv-x="1249" d="M123 512v430q0 256 129 394.5t372.5 138.5t372.5 -138.5t129 -394.5v-430q0 -256 -129 -394t-372.5 -138t-372.5 138t-129 394zM399 532q0 -297 225.5 -297t225.5 297v390q0 297 -225.5 297t-225.5 -297v-390zM491.5 1570.5q-6.5 14.5 2.5 28.5l116 226q20 39 56 39h252 q18 0 24 -14.5t-4 -28.5l-164 -226q-31 -39 -55 -39h-203q-18 0 -24.5 14.5z" />
<glyph unicode="&#xd4;" horiz-adv-x="1249" d="M123 512v430q0 256 129 394.5t372.5 138.5t372.5 -138.5t129 -394.5v-430q0 -256 -129 -394t-372.5 -138t-372.5 138t-129 394zM307 1573v176q0 20 39 39l227 115q53 27 105 0l225 -115q39 -18 39 -39v-176q0 -16 -11 -24.5t-28 -2.5l-278 119l-279 -119q-16 -6 -27.5 2 t-11.5 25zM399 532q0 -297 225.5 -297t225.5 297v390q0 297 -225.5 297t-225.5 -297v-390z" />
<glyph unicode="&#xd5;" horiz-adv-x="1249" d="M123 512v430q0 256 129 394.5t372.5 138.5t372.5 -138.5t129 -394.5v-430q0 -256 -129 -394t-372.5 -138t-372.5 138t-129 394zM307 1604v147q0 31 39 66q53 45 133 45q70 0 165 -37t124 -37q25 0 57.5 12t53.5 25l20 12q16 6 29.5 -1t13.5 -24v-145q0 -37 -39 -65 q-53 -45 -133 -46q-55 0 -153.5 37t-135.5 37q-25 0 -58.5 -12t-53.5 -25l-21 -12q-16 -6 -28.5 0t-12.5 23zM399 532q0 -297 225.5 -297t225.5 297v390q0 297 -225.5 297t-225.5 -297v-390z" />
<glyph unicode="&#xd6;" horiz-adv-x="1249" d="M123 512v430q0 256 129 394.5t372.5 138.5t372.5 -138.5t129 -394.5v-430q0 -256 -129 -394t-372.5 -138t-372.5 138t-129 394zM221 1575v199q0 39 39 38h199q39 0 39 -38v-199q0 -39 -39 -39h-199q-39 0 -39 39zM399 532q0 -297 225.5 -297t225.5 297v390 q0 297 -225.5 297t-225.5 -297v-390zM754 1575v199q0 39 39 38h198q39 0 39 -38v-199q0 -39 -39 -39h-198q-39 0 -39 39z" />
<glyph unicode="&#xd7;" horiz-adv-x="1079" d="M129 424q-27 27 0 55l238 238l-238 237q-27 29 0 56l119 116q27 29 55 0l238 -235l235 235q27 29 55 0l119 -116q29 -27 0 -56l-237 -237l237 -238q29 -28 0 -55l-119 -117q-29 -29 -55 0l-237 236l-236 -236q-29 -29 -55 0z" />
<glyph unicode="&#xd8;" horiz-adv-x="1249" d="M123 512v430q0 256 129 394.5t373 138.5q92 0 166 -19l57 166q14 37 45 37h102q16 0 24.5 -11.5t2.5 -25.5l-82 -236q186 -133 186 -444v-430q0 -256 -129 -394t-372 -138q-92 0 -166 18l-58 -166q-14 -37 -45 -37h-102q-16 0 -24.5 11.5t-2.5 25.5l82 236 q-186 133 -186 444zM399 532q0 -94 19 -149l287 825q-37 10 -80 11q-225 0 -226 -297v-390zM545 246q37 -10 80 -10q225 -1 225 296v390q0 94 -19 149z" />
<glyph unicode="&#xd9;" horiz-adv-x="1249" d="M123 532v883q0 39 39 39h198q39 0 39 -39v-883q0 -297 225.5 -296.5t225.5 296.5v883q0 39 39 39h198q39 0 39 -39v-883q0 -553 -501.5 -552.5t-501.5 552.5zM328 1849.5q6 14.5 24 14.5h252q35 0 55 -39l117 -226q8 -14 2 -28.5t-24 -14.5h-203q-25 0 -55 39l-164 226 q-10 14 -4 28.5z" />
<glyph unicode="&#xda;" horiz-adv-x="1249" d="M123 532v883q0 39 39 39h198q39 0 39 -39v-883q0 -297 225.5 -296.5t225.5 296.5v883q0 39 39 39h198q39 0 39 -39v-883q0 -553 -501.5 -552.5t-501.5 552.5zM518.5 1570.5q-6.5 14.5 1.5 28.5l117 226q18 39 55 39h252q18 0 24.5 -14.5t-3.5 -28.5l-164 -226 q-31 -39 -56 -39h-202q-18 0 -24.5 14.5z" />
<glyph unicode="&#xdb;" horiz-adv-x="1249" d="M123 532v883q0 39 39 39h198q39 0 39 -39v-883q0 -297 225.5 -296.5t225.5 296.5v883q0 39 39 39h198q39 0 39 -39v-883q0 -553 -501.5 -552.5t-501.5 552.5zM307 1573v176q0 20 39 39l227 115q53 27 105 0l225 -115q39 -18 39 -39v-176q0 -16 -11 -24.5t-28 -2.5 l-278 119l-279 -119q-16 -6 -27.5 2t-11.5 25z" />
<glyph unicode="&#xdc;" horiz-adv-x="1249" d="M123 532v883q0 39 39 39h198q39 0 39 -39v-883q0 -297 225.5 -296.5t225.5 296.5v883q0 39 39 39h198q39 0 39 -39v-883q0 -553 -501.5 -552.5t-501.5 552.5zM262 1575v199q0 39 39 38h199q39 0 39 -38v-199q0 -39 -39 -39h-199q-39 0 -39 39zM713 1575v199q0 39 39 38 h198q39 0 39 -38v-199q0 -39 -39 -39h-198q-39 0 -39 39z" />
<glyph unicode="&#xdd;" horiz-adv-x="1177" d="M39 1411q-6 16 2 29.5t27 13.5h235q23 0 39 -39l248 -627l246 627q16 39 38 39h236q18 0 26.5 -13.5t2.5 -29.5l-412 -950v-422q0 -39 -39 -39h-199q-39 0 -38 39v422zM483.5 1570.5q-6.5 14.5 1.5 28.5l117 226q20 39 55 39h252q18 0 24.5 -14.5t-3.5 -28.5l-164 -226 q-31 -39 -55 -39h-203q-18 0 -24.5 14.5z" />
<glyph unicode="&#xde;" horiz-adv-x="1167" d="M123 39v1376q0 39 39 39h198q39 0 39 -39v-227h205q233 0 357 -103.5t124 -337t-123.5 -337t-357.5 -103.5h-205v-268q0 -39 -39 -39h-198q-39 0 -39 39zM399 553h185q115 0 170 45t55 149.5t-55.5 149.5t-169.5 45h-185v-389z" />
<glyph unicode="&#xdf;" horiz-adv-x="1187" d="M123 39v1022q0 188 100.5 301t304.5 113q178 0 286 -93.5t108 -263.5q0 -86 -31 -158.5t-61.5 -123t-30.5 -82.5q0 -35 29.5 -62.5t71.5 -55.5t84 -62.5t71.5 -99t29.5 -152.5q0 -342 -342 -342q-55 0 -110 3t-84 7l-27 4q-41 8 -41 39v174q0 39 41 33q98 -14 185 -15 q102 0 102 86q0 43 -45 80t-98.5 64.5t-98.5 96.5t-45 167q0 92 61.5 210t61.5 167q0 123 -117 123q-129 0 -129 -164v-1016q0 -39 -39 -39h-198q-39 0 -39 39z" />
<glyph unicode="&#xe0;" horiz-adv-x="1044" d="M92 297q0 156 96.5 236.5t272.5 80.5q104 0 184 -12v53q0 70 -36 101.5t-113 31.5q-49 0 -120 -9t-118 -17l-45 -8q-39 -4 -39 30v174q0 35 39 41q150 45 328 45q215 0 298 -94t83 -295v-616q0 -39 -39 -39h-178q-39 0 -39 39v14q-121 -74 -248 -73q-326 0 -326 317z M227 1460.5q6 14.5 25 14.5h252q37 0 55 -39l117 -226q8 -14 2 -28.5t-25 -14.5h-202q-25 0 -56 39l-164 226q-10 14 -4 28.5zM369 307q0 -102 116 -102q68 0 160 43v168h-139q-137 0 -137 -109z" />
<glyph unicode="&#xe1;" horiz-adv-x="1044" d="M92 297q0 156 96.5 236.5t272.5 80.5q104 0 184 -12v53q0 70 -36 101.5t-113 31.5q-49 0 -120 -9t-118 -17l-45 -8q-39 -4 -39 30v174q0 35 39 41q150 45 328 45q215 0 298 -94t83 -295v-616q0 -39 -39 -39h-178q-39 0 -39 39v14q-121 -74 -248 -73q-326 0 -326 317z M369 307q0 -102 116 -102q68 0 160 43v168h-139q-137 0 -137 -109zM416 1181.5q-6 14.5 2 28.5l117 226q18 39 55 39h252q18 0 24 -14.5t-4 -28.5l-164 -226q-31 -39 -55 -39h-203q-18 0 -24 14.5z" />
<glyph unicode="&#xe2;" horiz-adv-x="1044" d="M92 297q0 156 96.5 236.5t272.5 80.5q104 0 184 -12v53q0 70 -36 101.5t-113 31.5q-49 0 -120 -9t-118 -17l-45 -8q-39 -4 -39 30v174q0 35 39 41q150 45 328 45q215 0 298 -94t83 -295v-616q0 -39 -39 -39h-178q-39 0 -39 39v14q-121 -74 -248 -73q-326 0 -326 317z M205 1145v176q0 4 1 8t3 7t4 5t7 5.5t7 4.5t8.5 5t8.5 4l227 115q53 27 104 0l226 -115q37 -25 39 -39v-176q0 -16 -11.5 -24.5t-27.5 -2.5l-279 119l-278 -119q-16 -6 -27.5 2t-11.5 25zM369 307q0 -102 116 -102q68 0 160 43v168h-139q-137 0 -137 -109z" />
<glyph unicode="&#xe3;" horiz-adv-x="1044" d="M92 297q0 156 96.5 236.5t272.5 80.5q104 0 184 -12v53q0 70 -36 101.5t-113 31.5q-49 0 -120 -9t-118 -17l-45 -8q-39 -4 -39 30v174q0 35 39 41q150 45 328 45q215 0 298 -94t83 -295v-616q0 -39 -39 -39h-178q-39 0 -39 39v14q-121 -74 -248 -73q-326 0 -326 317z M205 1217v147q0 31 39 66q53 45 133 45q70 0 165 -37t124 -37q25 0 57.5 12t52.5 25l21 12q16 6 29.5 -1t13.5 -24v-145q0 -37 -39 -66q-53 -45 -133 -45q-55 0 -153.5 37t-135.5 37q-25 0 -58.5 -12t-54.5 -25l-20 -12q-16 -6 -28.5 0t-12.5 23zM369 307q0 -102 116 -102 q68 0 160 43v168h-139q-137 0 -137 -109z" />
<glyph unicode="&#xe4;" horiz-adv-x="1044" d="M92 297q0 156 96.5 236.5t272.5 80.5q104 0 184 -12v53q0 70 -36 101.5t-113 31.5q-49 0 -120 -9t-118 -17l-45 -8q-39 -4 -39 30v174q0 35 39 41q150 45 328 45q215 0 298 -94t83 -295v-616q0 -39 -39 -39h-178q-39 0 -39 39v14q-121 -74 -248 -73q-326 0 -326 317z M174 1217v198q0 39 39 39h199q39 0 39 -39v-198q0 -39 -39 -39h-199q-39 0 -39 39zM369 307q0 -102 116 -102q68 0 160 43v168h-139q-137 0 -137 -109zM625 1217v198q0 39 39 39h198q39 0 39 -39v-198q0 -39 -39 -39h-198q-39 0 -39 39z" />
<glyph unicode="&#xe5;" horiz-adv-x="1044" d="M92 297q0 156 96.5 236.5t272.5 80.5q104 0 184 -12v53q0 70 -36 101.5t-113 31.5q-49 0 -120 -9t-118 -17l-45 -8q-39 -4 -39 30v174q0 35 39 41q150 45 328 45q215 0 298 -94t83 -295v-616q0 -39 -39 -39h-178q-39 0 -39 39v14q-121 -74 -248 -73q-326 0 -326 317z M285 1331.5q0 104.5 68.5 164.5t187 60t187.5 -60t69 -164.5t-69 -165t-187.5 -60.5t-187 60.5t-68.5 165zM369 307q0 -102 116 -102q68 0 160 43v168h-139q-137 0 -137 -109zM459 1331q0 -92 82 -92t82 92t-82 92t-82 -92z" />
<glyph unicode="&#xe6;" horiz-adv-x="1587" d="M92 297q0 156 96.5 236.5t272.5 80.5q104 0 184 -12v53q0 70 -36 101.5t-113 31.5q-49 0 -120 -9t-118 -17l-45 -8q-39 -4 -39 30v174q0 35 39 41q150 45 328 45q188 0 276 -73q102 74 254 73q205 0 304.5 -120.5t99.5 -313.5v-172q0 -39 -39 -39h-510q20 -168 200 -168 q49 0 117 7.5t109 13.5l43 6q39 4 39 -33v-176q0 -37 -39 -41q-150 -29 -285 -28q-242 0 -358 135q-162 -135 -334 -135q-326 0 -326 317zM369 307q0 -102 116 -102q80 0 189 57q-20 63 -27 154h-141q-137 0 -137 -109zM922 598h297v29q0 92 -32 139t-112 47 q-84 0 -117.5 -52t-35.5 -163z" />
<glyph unicode="&#xe7;" horiz-adv-x="819" d="M123 389v246q0 205 107.5 307t308.5 102q41 0 86 -4t69 -8l25 -6q39 -2 39 -41v-166q0 -37 -39 -33q-90 12 -162 13q-88 0 -123 -44t-35 -130v-226q0 -88 36 -131t124 -43l160 13q39 4 39 -33v-166q0 -39 -39 -41q-98 -18 -180 -18h-23l-8 -37h8q170 0 170 -179 q0 -174 -211 -174l-149 15q-39 4 -39 39v55q0 35 37 35h41q76 0 75 53q0 49 -69 49h-33q-35 0 -29 39l31 137q-217 86 -217 377z" />
<glyph unicode="&#xe8;" horiz-adv-x="1054" d="M113 475v86q0 221 110.5 352t315 131t304 -120.5t99.5 -313.5v-172q0 -39 -39 -39h-510q20 -168 201 -168q49 0 116.5 7.5t108.5 13.5l43 6q39 4 39 -33v-176q0 -37 -39 -41q-150 -29 -284 -28q-465 0 -465 495zM219 1460.5q6 14.5 25 14.5h252q37 0 55 -39l117 -226 q8 -14 2 -28.5t-25 -14.5h-203q-25 0 -55 39l-164 226q-10 14 -4 28.5zM389 598h297v29q0 92 -31.5 139t-111.5 47q-84 0 -118 -52t-36 -163z" />
<glyph unicode="&#xe9;" horiz-adv-x="1054" d="M113 475v86q0 221 110.5 352t315 131t304 -120.5t99.5 -313.5v-172q0 -39 -39 -39h-510q20 -168 201 -168q49 0 116.5 7.5t108.5 13.5l43 6q39 4 39 -33v-176q0 -37 -39 -41q-150 -29 -284 -28q-465 0 -465 495zM389 598h297v29q0 92 -31.5 139t-111.5 47q-84 0 -118 -52 t-36 -163zM412 1181.5q-6 14.5 2 28.5l116 226q18 39 56 39h252q18 0 24 -14.5t-4 -28.5l-164 -226q-31 -39 -55 -39h-203q-18 0 -24 14.5z" />
<glyph unicode="&#xea;" horiz-adv-x="1054" d="M113 475v86q0 221 110.5 352t315 131t304 -120.5t99.5 -313.5v-172q0 -39 -39 -39h-510q20 -168 201 -168q49 0 116.5 7.5t108.5 13.5l43 6q39 4 39 -33v-176q0 -37 -39 -41q-150 -29 -284 -28q-465 0 -465 495zM211 1145v176q0 4 1 8t3 7t4 5t7 5.5t7.5 4.5t8.5 5t8 4 l227 115q53 27 105 0l225 -115q37 -25 39 -39v-176q0 -16 -11.5 -24.5t-27.5 -2.5l-279 119l-278 -119q-16 -6 -27.5 2t-11.5 25zM389 598h297v29q0 92 -31.5 139t-111.5 47q-84 0 -118 -52t-36 -163z" />
<glyph unicode="&#xeb;" horiz-adv-x="1054" d="M113 475v86q0 221 110.5 352t315 131t304 -120.5t99.5 -313.5v-172q0 -39 -39 -39h-510q20 -168 201 -168q49 0 116.5 7.5t108.5 13.5l43 6q39 4 39 -33v-176q0 -37 -39 -41q-150 -29 -284 -28q-465 0 -465 495zM164 1217v198q0 39 39 39h198q39 0 39 -39v-198 q0 -39 -39 -39h-198q-39 0 -39 39zM389 598h297v29q0 92 -31.5 139t-111.5 47q-84 0 -118 -52t-36 -163zM614 1217v198q0 39 39 39h199q39 0 39 -39v-198q0 -39 -39 -39h-199q-39 0 -39 39z" />
<glyph unicode="&#xec;" horiz-adv-x="522" d="M-65 1460.5q6 14.5 24 14.5h252q35 0 55 -39l117 -226q8 -14 2 -28.5t-25 -14.5h-202q-25 0 -56 39l-163 226q-10 14 -4 28.5zM123 39v946q0 39 39 39h198q39 0 39 -39v-946q0 -39 -39 -39h-198q-39 0 -39 39z" />
<glyph unicode="&#xed;" horiz-adv-x="522" d="M123 39v946q0 39 39 39h198q39 0 39 -39v-946q0 -39 -39 -39h-198q-39 0 -39 39zM135.5 1181.5q-6.5 14.5 1.5 28.5l117 226q20 39 55 39h252q18 0 24.5 -14.5t-3.5 -28.5l-164 -226q-31 -39 -56 -39h-202q-18 0 -24.5 14.5z" />
<glyph unicode="&#xee;" horiz-adv-x="522" d="M-55 1145v176q0 4 1 8t3 7t4 5t7 5.5t7 4.5t8.5 5t8.5 4l227 115q53 27 104 0l226 -115q37 -25 39 -39v-176q0 -16 -11.5 -24.5t-27.5 -2.5l-279 119l-278 -119q-16 -6 -27.5 2t-11.5 25zM123 39v946q0 39 39 39h198q39 0 39 -39v-946q0 -39 -39 -39h-198q-39 0 -39 39z " />
<glyph unicode="&#xef;" horiz-adv-x="522" d="M-102 1217v198q0 39 39 39h198q39 0 39 -39v-198q0 -39 -39 -39h-198q-39 0 -39 39zM123 39v946q0 39 39 39h198q39 0 39 -39v-946q0 -39 -39 -39h-198q-39 0 -39 39zM348 1217v198q0 39 39 39h199q39 0 39 -39v-198q0 -39 -39 -39h-199q-39 0 -39 39z" />
<glyph unicode="&#xf0;" horiz-adv-x="1126" d="M123 410v208q0 385 360 386q137 0 244 -64v43q0 57 -8 92l-127 -47q-16 -6 -27.5 1t-11.5 24v75q0 27 39 43l51 19q-51 29 -141 29q-39 0 -103.5 -5.5t-109.5 -11.5l-45 -6q-39 -4 -39 33v180q0 37 39 39q150 27 268 27q293 0 412 -183l123 45q16 6 27 -2t11 -24v-68 q0 -33 -38 -49l-68 -25q25 -88 25 -206v-553q0 -207 -114 -318.5t-327 -111.5q-217 0 -328.5 112.5t-111.5 317.5zM399 416q0 -180 164 -180t164 180v274q-111 57 -184 58q-143 0 -144 -144v-188z" />
<glyph unicode="&#xf1;" d="M123 39v946q0 39 39 39h178q39 0 39 -39v-29q125 88 266 88q166 0 236.5 -90t70.5 -258v-657q0 -39 -39 -39h-198q-39 0 -39 39v616q0 133 -119 133q-68 0 -158 -43v-706q0 -39 -39 -39h-198q-39 0 -39 39zM221 1217v147q0 31 39 66q53 45 133 45q70 0 165 -37t124 -37 q25 0 57.5 12t53.5 25l20 12q16 6 29.5 -1t13.5 -24v-145q0 -37 -39 -66q-53 -45 -133 -45q-55 0 -153.5 37t-135.5 37q-25 0 -58.5 -12t-53.5 -25l-21 -12q-16 -6 -28.5 0t-12.5 23z" />
<glyph unicode="&#xf2;" horiz-adv-x="1077" d="M123 389v246q0 205 107.5 307t308 102t308 -102t107.5 -307v-246q0 -205 -107.5 -307t-308 -102t-308 102t-107.5 307zM211 1460.5q6 14.5 25 14.5h251q37 0 56 -39l116 -226q8 -14 2 -28.5t-24 -14.5h-203q-25 0 -55 39l-164 226q-10 14 -4 28.5zM399 385 q0 -164 139.5 -164t139.5 164v256q0 164 -139.5 164t-139.5 -164v-256z" />
<glyph unicode="&#xf3;" horiz-adv-x="1077" d="M123 389v246q0 205 107.5 307t308 102t308 -102t107.5 -307v-246q0 -205 -107.5 -307t-308 -102t-308 102t-107.5 307zM399 385q0 -164 139.5 -164t139.5 164v256q0 164 -139.5 164t-139.5 -164v-256zM409.5 1181.5q-6.5 14.5 2.5 28.5l116 226q20 39 56 39h252 q18 0 24 -14.5t-4 -28.5l-164 -226q-31 -39 -55 -39h-203q-18 0 -24.5 14.5z" />
<glyph unicode="&#xf4;" horiz-adv-x="1077" d="M123 389v246q0 205 107.5 307t308 102t308 -102t107.5 -307v-246q0 -205 -107.5 -307t-308 -102t-308 102t-107.5 307zM221 1145v176q0 4 1 8t3 7t4 5t7.5 5.5t7.5 4.5t8 5t8 4l227 115q53 27 105 0l225 -115q37 -25 39 -39v-176q0 -16 -11 -24.5t-28 -2.5l-278 119 l-279 -119q-16 -6 -27.5 2t-11.5 25zM399 385q0 -164 139.5 -164t139.5 164v256q0 164 -139.5 164t-139.5 -164v-256z" />
<glyph unicode="&#xf5;" horiz-adv-x="1077" d="M123 389v246q0 205 107.5 307t308 102t308 -102t107.5 -307v-246q0 -205 -107.5 -307t-308 -102t-308 102t-107.5 307zM221 1217v147q0 31 39 66q53 45 133 45q70 0 165 -37t124 -37q25 0 57.5 12t53.5 25l20 12q16 6 29.5 -1t13.5 -24v-145q0 -37 -39 -66 q-53 -45 -133 -45q-55 0 -153.5 37t-135.5 37q-25 0 -58.5 -12t-53.5 -25l-21 -12q-16 -6 -28.5 0t-12.5 23zM399 385q0 -164 139.5 -164t139.5 164v256q0 164 -139.5 164t-139.5 -164v-256z" />
<glyph unicode="&#xf6;" horiz-adv-x="1077" d="M123 389v246q0 205 107.5 307t308 102t308 -102t107.5 -307v-246q0 -205 -107.5 -307t-308 -102t-308 102t-107.5 307zM176 1217v198q0 39 39 39h199q39 0 39 -39v-198q0 -39 -39 -39h-199q-39 0 -39 39zM399 385q0 -164 139.5 -164t139.5 164v256q0 164 -139.5 164 t-139.5 -164v-256zM627 1217v198q0 39 39 39h198q39 0 39 -39v-198q0 -39 -39 -39h-198q-39 0 -39 39z" />
<glyph unicode="&#xf7;" d="M102 633v168q0 39 39 39h793q39 0 39 -39v-168q0 -39 -39 -39h-793q-39 0 -39 39zM399 254v199q0 39 39 39h199q39 0 39 -39v-199q0 -39 -39 -39h-199q-39 0 -39 39zM399 981v199q0 39 39 39h199q39 0 39 -39v-199q0 -39 -39 -39h-199q-39 0 -39 39z" />
<glyph unicode="&#xf8;" horiz-adv-x="1077" d="M123 389v246q0 205 107.5 307t308.5 102q39 0 100 -8l55 156q14 37 41 37h103q16 0 25 -12.5t3 -26.5l-73 -207q162 -98 161 -348v-246q0 -205 -107.5 -307t-307.5 -102q-39 0 -101 8l-57 -158q-14 -35 -41 -35h-102q-16 0 -25.5 12.5t-3.5 26.5l74 209 q-160 102 -160 346zM399 385q0 -33 7 -59l169 475q-20 4 -36 4q-139 0 -140 -164v-256zM502 225q25 -4 37 -4q139 0 139 164v256q0 35 -6 61z" />
<glyph unicode="&#xf9;" d="M123 328v657q0 39 39 39h198q39 0 39 -39v-616q0 -133 119 -133q68 0 158 43v706q0 39 39 39h198q39 0 39 -39v-946q0 -39 -39 -39h-178q-39 0 -39 39v29q-125 -88 -266 -88q-166 0 -236.5 90t-70.5 258zM215 1460.5q6 14.5 25 14.5h252q37 0 55 -39l117 -226 q8 -14 1.5 -28.5t-24.5 -14.5h-203q-25 0 -55 39l-164 226q-10 14 -4 28.5z" />
<glyph unicode="&#xfa;" d="M123 328v657q0 39 39 39h198q39 0 39 -39v-616q0 -133 119 -133q68 0 158 43v706q0 39 39 39h198q39 0 39 -39v-946q0 -39 -39 -39h-178q-39 0 -39 39v29q-125 -88 -266 -88q-166 0 -236.5 90t-70.5 258zM418 1181.5q-6 14.5 2 28.5l117 226q20 39 55 39h252 q18 0 24 -14.5t-4 -28.5l-164 -226q-31 -39 -55 -39h-203q-18 0 -24 14.5z" />
<glyph unicode="&#xfb;" d="M123 328v657q0 39 39 39h198q39 0 39 -39v-616q0 -133 119 -133q68 0 158 43v706q0 39 39 39h198q39 0 39 -39v-946q0 -39 -39 -39h-178q-39 0 -39 39v29q-125 -88 -266 -88q-166 0 -236.5 90t-70.5 258zM221 1145v176q0 4 1 8t3 7t4 5t7.5 5.5t7.5 4.5t8 5t8 4l227 115 q53 27 105 0l225 -115q37 -25 39 -39v-176q0 -16 -11 -24.5t-28 -2.5l-278 119l-279 -119q-16 -6 -27.5 2t-11.5 25z" />
<glyph unicode="&#xfc;" d="M123 328v657q0 39 39 39h198q39 0 39 -39v-616q0 -133 119 -133q68 0 158 43v706q0 39 39 39h198q39 0 39 -39v-946q0 -39 -39 -39h-178q-39 0 -39 39v29q-125 -88 -266 -88q-166 0 -236.5 90t-70.5 258zM174 1217v198q0 39 39 39h199q39 0 39 -39v-198q0 -39 -39 -39 h-199q-39 0 -39 39zM625 1217v198q0 39 39 39h198q39 0 39 -39v-198q0 -39 -39 -39h-198q-39 0 -39 39z" />
<glyph unicode="&#xfd;" horiz-adv-x="1024" d="M33 985q-4 16 6 27.5t27 11.5h217q35 0 45 -35l174 -567l192 565q10 37 45 37h217q16 0 26.5 -12.5t6.5 -28.5l-454 -1335q-10 -37 -43 -37h-222q-16 0 -25 12t-5 29l112 332zM387.5 1181.5q-6.5 14.5 1.5 28.5l117 226q18 39 55 39h252q18 0 24.5 -14.5t-3.5 -28.5 l-164 -226q-31 -39 -56 -39h-202q-18 0 -24.5 14.5z" />
<glyph unicode="&#xfe;" d="M123 -350v1765q0 39 39 39h198q39 0 39 -39v-430q109 59 215 59q168 0 253 -98t85 -270v-287q0 -180 -101 -284.5t-300 -104.5q-47 0 -152 14v-364q0 -39 -39 -39h-198q-39 0 -39 39zM399 236h131q146 -1 146 163v246q0 154 -135 154q-57 0 -142 -35v-528z" />
<glyph unicode="&#xff;" horiz-adv-x="1024" d="M33 985q-4 16 6 27.5t27 11.5h217q35 0 45 -35l174 -567l192 565q10 37 45 37h217q16 0 26.5 -12.5t6.5 -28.5l-454 -1335q-10 -37 -43 -37h-222q-16 0 -25 12t-5 29l112 332zM150 1217v198q0 39 38 39h199q39 0 39 -39v-198q0 -39 -39 -39h-199q-39 0 -38 39zM600 1217 v198q0 39 39 39h199q39 0 39 -39v-198q0 -39 -39 -39h-199q-39 0 -39 39z" />
<glyph unicode="&#x100;" horiz-adv-x="1239" d="M33 41l405 1374q10 39 47 39h269q37 0 47 -39l405 -1374q4 -16 -4 -28.5t-24 -12.5h-224q-33 0 -43 39l-57 207h-469l-57 -207q-10 -39 -43 -39h-224q-16 0 -24 12.5t-4 28.5zM358 1647v157q0 39 39 39h445q39 0 39 -39v-157q0 -39 -39 -39h-445q-39 0 -39 39zM457 502 h325l-161 590z" />
<glyph unicode="&#x101;" horiz-adv-x="1044" d="M92 297q0 156 96.5 236.5t272.5 80.5q104 0 184 -12v53q0 70 -36 101.5t-113 31.5q-49 0 -120 -9t-118 -17l-45 -8q-39 -4 -39 30v174q0 35 39 41q150 45 328 45q215 0 298 -94t83 -295v-616q0 -39 -39 -39h-178q-39 0 -39 39v14q-121 -74 -248 -73q-326 0 -326 317z M293 1237v158q0 39 39 39h444q39 0 39 -39v-158q0 -39 -39 -39h-444q-39 0 -39 39zM369 307q0 -102 116 -102q68 0 160 43v168h-139q-137 0 -137 -109z" />
<glyph unicode="&#x102;" horiz-adv-x="1239" d="M33 41l405 1374q10 39 47 39h269q37 0 47 -39l405 -1374q4 -16 -4 -28.5t-24 -12.5h-224q-33 0 -43 39l-57 207h-469l-57 -207q-10 -39 -43 -39h-224q-16 0 -24 12.5t-4 28.5zM295 1860q0 39 39 38h168q39 0 39 -38q0 -135 77.5 -135.5t77.5 135.5q0 39 39 38h168 q39 1 39 -38q0 -170 -80 -250t-243.5 -80t-243.5 80t-80 250zM457 502h325l-161 590z" />
<glyph unicode="&#x103;" horiz-adv-x="1044" d="M92 297q0 156 96.5 236.5t272.5 80.5q104 0 184 -12v53q0 70 -36 101.5t-113 31.5q-49 0 -120 -9t-118 -17l-45 -8q-39 -4 -39 30v174q0 35 39 41q150 45 328 45q215 0 298 -94t83 -295v-616q0 -39 -39 -39h-178q-39 0 -39 39v14q-121 -74 -248 -73q-326 0 -326 317z M229 1425q0 39 39 39h168q39 0 39 -39q0 -135 78 -135t78 135q0 39 39 39h168q39 0 39 -39q0 -170 -80 -249.5t-244 -79.5t-244 79.5t-80 249.5zM369 307q0 -102 116 -102q68 0 160 43v168h-139q-137 0 -137 -109z" />
<glyph unicode="&#x104;" horiz-adv-x="1239" d="M33 41l405 1374q10 39 47 39h269q37 0 47 -39l405 -1374q4 -16 -3 -27.5t-15 -13.5q-20 -4 -62.5 -58.5t-42.5 -105.5q0 -66 39 -65q16 0 45 8l29 10q12 0 12 -22v-121q0 -23 -22 -33q-72 -23 -148 -23q-94 0 -133 61.5t-39 143.5q0 141 99 205h-11q-33 0 -43 39l-57 207 h-469l-57 -207q-10 -39 -43 -39h-224q-16 0 -24 12.5t-4 28.5zM457 502h325l-161 590z" />
<glyph unicode="&#x105;" horiz-adv-x="1044" d="M92 297q0 156 96.5 236.5t272.5 80.5q104 0 184 -12v53q0 70 -36 101.5t-113 31.5q-49 0 -120 -9t-118 -17l-45 -8q-39 -4 -39 30v174q0 35 39 41q150 45 328 45q215 0 298 -94t83 -295v-616q0 -23 -31 -45q-92 -78 -92 -158q0 -66 39 -65q16 0 45 8l28 10q12 0 13 -22 v-121q0 -23 -23 -33q-71 -23 -147 -23q-94 0 -133 61.5t-39 143.5q0 145 104 209q-20 10 -20 35v14q-121 -74 -248 -73q-326 0 -326 317zM369 307q0 -102 116 -102q68 0 160 43v168h-139q-137 0 -137 -109z" />
<glyph unicode="&#x106;" horiz-adv-x="972" d="M123 512v430q0 256 129 394.5t373 138.5q49 0 105 -6.5t89 -10.5l33 -6q39 -4 39 -41v-182q0 -37 -41 -33q-133 16 -225 16q-225 0 -226 -290v-390q0 -139 52.5 -214.5t183.5 -75.5q41 0 95 4t89 8l33 6q39 4 39 -33v-184q0 -37 -39 -41q-119 -23 -227 -22 q-244 0 -373 138t-129 394zM452.5 1570.5q-6.5 14.5 2.5 28.5l116 226q18 39 56 39h252q18 0 24 -14.5t-4 -28.5l-164 -226q-31 -39 -55 -39h-203q-18 0 -24.5 14.5z" />
<glyph unicode="&#x107;" horiz-adv-x="819" d="M123 389v246q0 205 107.5 307t308.5 102q41 0 86 -4t69 -8l25 -6q39 -2 39 -41v-166q0 -37 -39 -33q-90 12 -162 13q-88 0 -123 -44t-35 -130v-226q0 -88 36 -131t124 -43l160 13q39 4 39 -33v-166q0 -39 -39 -41q-98 -18 -180 -18q-201 0 -308.5 102t-107.5 307z M364.5 1181.5q-6.5 14.5 2.5 28.5l116 226q20 39 56 39h252q18 0 24 -14.5t-4 -28.5l-164 -226q-31 -39 -55 -39h-203q-18 0 -24.5 14.5z" />
<glyph unicode="&#x108;" horiz-adv-x="972" d="M123 512v430q0 256 129 394.5t373 138.5q49 0 105 -6.5t89 -10.5l33 -6q39 -4 39 -41v-182q0 -37 -41 -33q-133 16 -225 16q-225 0 -226 -290v-390q0 -139 52.5 -214.5t183.5 -75.5q41 0 95 4t89 8l33 6q39 4 39 -33v-184q0 -37 -39 -41q-119 -23 -227 -22 q-244 0 -373 138t-129 394zM266 1573v176q0 20 39 39l227 115q53 27 105 0l225 -115q39 -18 39 -39v-176q0 -16 -11 -24.5t-28 -2.5l-278 119l-279 -119q-16 -6 -27.5 2t-11.5 25z" />
<glyph unicode="&#x109;" horiz-adv-x="819" d="M123 389v246q0 205 107.5 307t308.5 102q41 0 86 -4t69 -8l25 -6q39 -2 39 -41v-166q0 -37 -39 -33q-90 12 -162 13q-88 0 -123 -44t-35 -130v-226q0 -88 36 -131t124 -43l160 13q39 4 39 -33v-166q0 -39 -39 -41q-98 -18 -180 -18q-201 0 -308.5 102t-107.5 307z M180 1145v176q0 4 1 8t3 7t4 5t7.5 5.5t7.5 4.5t8 5t8 4l227 115q53 27 105 0l225 -115q37 -25 39 -39v-176q0 -16 -11 -24.5t-28 -2.5l-278 119l-279 -119q-16 -6 -27.5 2t-11.5 25z" />
<glyph unicode="&#x10a;" horiz-adv-x="972" d="M123 512v430q0 256 129 394.5t373 138.5q49 0 105 -6.5t89 -10.5l33 -6q39 -4 39 -41v-182q0 -37 -41 -33q-133 16 -225 16q-225 0 -226 -290v-390q0 -139 52.5 -214.5t183.5 -75.5q41 0 95 4t89 8l33 6q39 4 39 -33v-184q0 -37 -39 -41q-119 -23 -227 -22 q-244 0 -373 138t-129 394zM446 1575v199q0 39 39 38h199q39 0 39 -38v-199q0 -39 -39 -39h-199q-39 0 -39 39z" />
<glyph unicode="&#x10b;" horiz-adv-x="819" d="M123 389v246q0 205 107.5 307t308.5 102q41 0 86 -4t69 -8l25 -6q39 -2 39 -41v-166q0 -37 -39 -33q-90 12 -162 13q-88 0 -123 -44t-35 -130v-226q0 -88 36 -131t124 -43l160 13q39 4 39 -33v-166q0 -39 -39 -41q-98 -18 -180 -18q-201 0 -308.5 102t-107.5 307z M360 1217v198q0 39 39 39h199q39 0 39 -39v-198q0 -39 -39 -39h-199q-39 0 -39 39z" />
<glyph unicode="&#x10c;" horiz-adv-x="972" d="M123 512v430q0 256 129 394.5t373 138.5q49 0 105 -6.5t89 -10.5l33 -6q39 -4 39 -41v-182q0 -37 -41 -33q-133 16 -225 16q-225 0 -226 -290v-390q0 -139 52.5 -214.5t183.5 -75.5q41 0 95 4t89 8l33 6q39 4 39 -33v-184q0 -37 -39 -41q-119 -23 -227 -22 q-244 0 -373 138t-129 394zM268 1700v176q0 16 11.5 24.5t27.5 2.5l279 -119l278 119q16 6 27.5 -2.5t11.5 -24.5v-176q0 -20 -39 -39l-225 -115q-51 -27 -104 0l-228 115q-39 18 -39 39z" />
<glyph unicode="&#x10d;" horiz-adv-x="819" d="M123 389v246q0 205 107.5 307t308.5 102q41 0 86 -4t69 -8l25 -6q39 -2 39 -41v-166q0 -37 -39 -33q-90 12 -162 13q-88 0 -123 -44t-35 -130v-226q0 -88 36 -131t124 -43l160 13q39 4 39 -33v-166q0 -39 -39 -41q-98 -18 -180 -18q-201 0 -308.5 102t-107.5 307z M182 1266v182q0 16 11.5 24.5t27.5 2.5l279 -119l278 119q16 6 27.5 -2.5t11.5 -24.5v-182q0 -20 -39 -39l-225 -115q-51 -27 -104 0l-228 115q-39 18 -39 39z" />
<glyph unicode="&#x10e;" horiz-adv-x="1249" d="M123 39v1376q0 39 39 39h463q244 0 372.5 -138t128.5 -394v-390q0 -256 -129 -394t-372 -138h-463q-39 0 -39 39zM262 1700v176q0 16 11.5 24.5t27.5 2.5l279 -119l278 119q16 6 27.5 -2.5t11.5 -24.5v-176q0 -20 -39 -39l-225 -115q-51 -27 -105 0l-227 115 q-39 18 -39 39zM399 256h226q225 0 225 297v348q0 297 -225 297h-226v-942z" />
<glyph unicode="&#x10f;" d="M123 348v328q0 172 85 270t253 98q106 0 215 -49v420q0 39 39 39h198q39 0 39 -39v-1376q0 -39 -39 -39h-178q-39 0 -39 39v12q-125 -72 -235 -71q-168 0 -253 98t-85 270zM399 379q0 -154 136 -154q57 0 141 35v512q-80 27 -141 27q-135 0 -136 -154v-266zM1030 1221 v198q0 35 35 35h199q35 0 34 -35v-184l-88 -135q-23 -35 -49 -35h-80q-16 0 -27.5 10t-2.5 23l53 88h-39q-35 0 -35 35z" />
<glyph unicode="&#x110;" horiz-adv-x="1249" d="M123 39v1376q0 39 39 39h463q244 0 372.5 -138t128.5 -394v-390q0 -256 -129 -394t-372 -138h-463q-39 0 -39 39zM399 256h226q225 0 225 297v348q0 297 -225 297h-226v-328h289q39 0 39 -39v-178q0 -39 -39 -39h-289v-358z" />
<glyph unicode="&#x111;" d="M123 348v328q0 172 85 270t253 98q106 0 215 -49v117h-115q-39 0 -39 39v158q0 39 39 39h115v67q0 39 39 39h198q39 0 39 -39v-67h54q39 0 38 -39v-158q0 -39 -38 -39h-54v-1073q0 -39 -39 -39h-178q-39 0 -39 39v12q-125 -72 -235 -71q-168 0 -253 98t-85 270zM399 379 q0 -154 136 -154q57 0 141 35v512q-80 27 -141 27q-135 0 -136 -154v-266z" />
<glyph unicode="&#x112;" horiz-adv-x="1034" d="M123 39v1376q0 39 39 39h751q39 0 39 -39v-178q0 -39 -39 -39h-514v-328h473q39 0 39 -39v-178q0 -39 -39 -39h-473v-358h514q39 0 39 -39v-178q0 -39 -39 -39h-751q-39 0 -39 39zM276 1647v157q0 39 39 39h445q39 0 39 -39v-157q0 -39 -39 -39h-445q-39 0 -39 39z" />
<glyph unicode="&#x113;" horiz-adv-x="1054" d="M113 475v86q0 221 110.5 352t315 131t304 -120.5t99.5 -313.5v-172q0 -39 -39 -39h-510q20 -168 201 -168q49 0 116.5 7.5t108.5 13.5l43 6q39 4 39 -33v-176q0 -37 -39 -41q-150 -29 -284 -28q-465 0 -465 495zM279 1237v158q0 39 38 39h445q39 0 39 -39v-158 q0 -39 -39 -39h-445q-39 0 -38 39zM389 598h297v29q0 92 -31.5 139t-111.5 47q-84 0 -118 -52t-36 -163z" />
<glyph unicode="&#x114;" horiz-adv-x="1034" d="M123 39v1376q0 39 39 39h751q39 0 39 -39v-178q0 -39 -39 -39h-514v-328h473q39 0 39 -39v-178q0 -39 -39 -39h-473v-358h514q39 0 39 -39v-178q0 -39 -39 -39h-751q-39 0 -39 39zM213 1860q0 39 39 38h168q39 0 39 -38q0 -135 77.5 -135.5t77.5 135.5q0 39 39 38h168 q39 1 39 -38q0 -170 -80 -250t-243.5 -80t-243.5 80t-80 250z" />
<glyph unicode="&#x115;" horiz-adv-x="1054" d="M113 475v86q0 221 110.5 352t315 131t304 -120.5t99.5 -313.5v-172q0 -39 -39 -39h-510q20 -168 201 -168q49 0 116.5 7.5t108.5 13.5l43 6q39 4 39 -33v-176q0 -37 -39 -41q-150 -29 -284 -28q-465 0 -465 495zM215 1425q0 39 39 39h168q39 0 39 -39q0 -135 77.5 -135 t77.5 135q0 39 39 39h168q39 0 39 -39q0 -170 -80 -249.5t-243.5 -79.5t-243.5 79.5t-80 249.5zM389 598h297v29q0 92 -31.5 139t-111.5 47q-84 0 -118 -52t-36 -163z" />
<glyph unicode="&#x116;" horiz-adv-x="1034" d="M123 39v1376q0 39 39 39h751q39 0 39 -39v-178q0 -39 -39 -39h-514v-328h473q39 0 39 -39v-178q0 -39 -39 -39h-473v-358h514q39 0 39 -39v-178q0 -39 -39 -39h-751q-39 0 -39 39zM399 1575v199q0 39 39 38h199q39 0 39 -38v-199q0 -39 -39 -39h-199q-39 0 -39 39z" />
<glyph unicode="&#x117;" horiz-adv-x="1054" d="M113 475v86q0 221 110.5 352t315 131t304 -120.5t99.5 -313.5v-172q0 -39 -39 -39h-510q20 -168 201 -168q49 0 116.5 7.5t108.5 13.5l43 6q39 4 39 -33v-176q0 -37 -39 -41q-150 -29 -284 -28q-465 0 -465 495zM389 598h297v29q0 92 -31.5 139t-111.5 47q-84 0 -118 -52 t-36 -163zM401 1217v198q0 39 39 39h199q39 0 39 -39v-198q0 -39 -39 -39h-199q-39 0 -39 39z" />
<glyph unicode="&#x118;" horiz-adv-x="1034" d="M123 39v1376q0 39 39 39h751q39 0 39 -39v-178q0 -39 -39 -39h-514v-328h473q39 0 39 -39v-178q0 -39 -39 -39h-473v-358h514q39 0 39 -39v-178q0 -16 -10 -27.5t-20 -11.5q-23 0 -66 -57.5t-43 -106.5q0 -66 39 -65q16 0 45 8l29 10q12 0 12 -22v-121q0 -23 -23 -33 q-71 -23 -147 -23q-94 0 -133 61.5t-39 143.5q0 141 98 205h-532q-39 0 -39 39z" />
<glyph unicode="&#x119;" horiz-adv-x="1054" d="M113 475v86q0 221 110.5 352t315 131t304 -120.5t99.5 -313.5v-172q0 -39 -39 -39h-510q20 -168 201 -168q49 0 116.5 7.5t108.5 13.5l43 6q39 4 39 -33v-176q0 -37 -39 -41q-39 -2 -81 -64.5t-42 -107.5q0 -66 39 -65q16 0 45 8l29 10q12 0 12 -22v-121q0 -25 -22 -33 q-57 -23 -148 -23q-94 0 -133 61.5t-39 143.5q0 117 72 185h-16q-465 0 -465 495zM389 598h297v29q0 92 -31.5 139t-111.5 47q-84 0 -118 -52t-36 -163z" />
<glyph unicode="&#x11a;" horiz-adv-x="1034" d="M123 39v1376q0 39 39 39h751q39 0 39 -39v-178q0 -39 -39 -39h-514v-328h473q39 0 39 -39v-178q0 -39 -39 -39h-473v-358h514q39 0 39 -39v-178q0 -39 -39 -39h-751q-39 0 -39 39zM221 1700v176q0 16 11.5 24.5t27.5 2.5l279 -119l278 119q16 6 27.5 -2.5t11.5 -24.5 v-176q0 -20 -39 -39l-225 -115q-51 -27 -105 0l-227 115q-39 18 -39 39z" />
<glyph unicode="&#x11b;" horiz-adv-x="1054" d="M113 475v86q0 221 110.5 352t315 131t304 -120.5t99.5 -313.5v-172q0 -39 -39 -39h-510q20 -168 201 -168q49 0 116.5 7.5t108.5 13.5l43 6q39 4 39 -33v-176q0 -37 -39 -41q-150 -29 -284 -28q-465 0 -465 495zM223 1266v182q0 16 11.5 24.5t27.5 2.5l279 -119l278 119 q16 6 27.5 -2.5t11.5 -24.5v-182q0 -20 -39 -39l-225 -115q-51 -27 -105 0l-227 115q-39 18 -39 39zM389 598h297v29q0 92 -31.5 139t-111.5 47q-84 0 -118 -52t-36 -163z" />
<glyph unicode="&#x11c;" horiz-adv-x="1249" d="M123 512v389q0 276 139 425t404 149q98 0 193 -15.5t140 -29.5l48 -17q39 -6 38 -41v-174q0 -39 -41 -33q-231 53 -368 54q-276 0 -277 -318v-369q0 -297 234 -296q53 0 107.5 9t82.5 17l27 10v301h-207q-39 0 -39 39v179q0 39 39 38h444q39 0 39 -38v-699 q-25 -12 -69.5 -30.5t-175.5 -50t-256 -31.5q-502 0 -502 532zM328 1573v176q0 20 39 39l227 115q53 27 104 0l226 -115q39 -18 39 -39v-176q0 -16 -11.5 -24.5t-27.5 -2.5l-279 119l-278 -119q-16 -6 -27.5 2t-11.5 25z" />
<glyph unicode="&#x11d;" d="M123 389v266q0 180 101.5 284.5t299.5 104.5q80 0 177.5 -12t154.5 -24l57 -15q39 -4 39 -39v-923q0 -246 -93 -343.5t-310 -97.5q-74 0 -160 10.5t-135 18.5l-51 10q-39 4 -39 41v180q0 35 39 31q178 -35 299 -35q98 0 136 43t38 142v49q-109 -59 -215 -60 q-168 0 -253 98.5t-85 270.5zM254 1145v176q0 4 1 8t3 7t4 5t7 5.5t7.5 4.5t8.5 5t8 4l227 115q53 27 105 0l225 -115q37 -25 39 -39v-176q0 -16 -11.5 -24.5t-27.5 -2.5l-279 119l-278 -119q-16 -6 -27.5 2t-11.5 25zM399 420q0 -154 136 -154q57 0 141 35v483 q-94 14 -131 15q-145 0 -146 -154v-225z" />
<glyph unicode="&#x11e;" horiz-adv-x="1249" d="M123 512v389q0 276 139 425t404 149q98 0 193 -15.5t140 -29.5l48 -17q39 -6 38 -41v-174q0 -39 -41 -33q-231 53 -368 54q-276 0 -277 -318v-369q0 -297 234 -296q53 0 107.5 9t82.5 17l27 10v301h-207q-39 0 -39 39v179q0 39 39 38h444q39 0 39 -38v-699 q-25 -12 -69.5 -30.5t-175.5 -50t-256 -31.5q-502 0 -502 532zM322 1860q0 39 38 38h168q39 0 39 -38q0 -135 78 -135.5t78 135.5q0 39 39 38h168q39 1 39 -38q0 -170 -80 -250t-244 -80t-243.5 80t-79.5 250z" />
<glyph unicode="&#x11f;" d="M123 389v266q0 180 101.5 284.5t299.5 104.5q80 0 177.5 -12t154.5 -24l57 -15q39 -4 39 -39v-923q0 -246 -93 -343.5t-310 -97.5q-74 0 -160 10.5t-135 18.5l-51 10q-39 4 -39 41v180q0 35 39 31q178 -35 299 -35q98 0 136 43t38 142v49q-109 -59 -215 -60 q-168 0 -253 98.5t-85 270.5zM248 1425q0 39 39 39h168q39 0 39 -39q0 -135 77.5 -135t77.5 135q0 39 39 39h168q39 0 39 -39q0 -170 -80 -249.5t-243.5 -79.5t-243.5 79.5t-80 249.5zM399 420q0 -154 136 -154q57 0 141 35v483q-94 14 -131 15q-145 0 -146 -154v-225z" />
<glyph unicode="&#x120;" horiz-adv-x="1249" d="M123 512v389q0 276 139 425t404 149q98 0 193 -15.5t140 -29.5l48 -17q39 -6 38 -41v-174q0 -39 -41 -33q-231 53 -368 54q-276 0 -277 -318v-369q0 -297 234 -296q53 0 107.5 9t82.5 17l27 10v301h-207q-39 0 -39 39v179q0 39 39 38h444q39 0 39 -38v-699 q-25 -12 -69.5 -30.5t-175.5 -50t-256 -31.5q-502 0 -502 532zM508 1575v199q0 39 39 38h198q39 0 39 -38v-199q0 -39 -39 -39h-198q-39 0 -39 39z" />
<glyph unicode="&#x121;" d="M123 389v266q0 180 101.5 284.5t299.5 104.5q80 0 177.5 -12t154.5 -24l57 -15q39 -4 39 -39v-923q0 -246 -93 -343.5t-310 -97.5q-74 0 -160 10.5t-135 18.5l-51 10q-39 4 -39 41v180q0 35 39 31q178 -35 299 -35q98 0 136 43t38 142v49q-109 -59 -215 -60 q-168 0 -253 98.5t-85 270.5zM399 420q0 -154 136 -154q57 0 141 35v483q-94 14 -131 15q-145 0 -146 -154v-225zM434 1217v198q0 39 39 39h199q39 0 39 -39v-198q0 -39 -39 -39h-199q-39 0 -39 39z" />
<glyph unicode="&#x122;" horiz-adv-x="1249" d="M123 512v389q0 276 139 425t404 149q98 0 193 -15.5t140 -29.5l48 -17q39 -6 38 -41v-174q0 -39 -41 -33q-231 53 -368 54q-276 0 -277 -318v-369q0 -297 234 -296q53 0 107.5 9t82.5 17l27 10v301h-207q-39 0 -39 39v179q0 39 39 38h444q39 0 39 -38v-699 q-25 -12 -69.5 -30.5t-175.5 -50t-256 -31.5q-502 0 -502 532zM514 -84q0 35 35 35h199q35 0 34 -35v-213l-69 -178q-14 -35 -39 -35h-92q-37 0 -31 33l37 162h-39q-35 0 -35 34v197z" />
<glyph unicode="&#x123;" d="M123 389v266q0 180 101.5 284.5t299.5 104.5q80 0 177.5 -12t154.5 -24l57 -15q39 -4 39 -39v-923q0 -246 -93 -343.5t-310 -97.5q-74 0 -160 10.5t-135 18.5l-51 10q-39 4 -39 41v180q0 35 39 31q178 -35 299 -35q98 0 136 43t38 142v49q-109 -59 -215 -60 q-168 0 -253 98.5t-85 270.5zM399 420q0 -154 136 -154q57 0 141 35v483q-94 14 -131 15q-145 0 -146 -154v-225zM440 1229v215l88 260q10 35 37 35h92q16 0 24.5 -9.5t6.5 -23.5l-53 -244h39q35 0 35 -35v-198q0 -35 -35 -35h-199q-35 0 -35 35z" />
<glyph unicode="&#x124;" horiz-adv-x="1249" d="M123 39v1376q0 39 39 39h198q39 0 39 -39v-545h451v545q0 39 39 39h198q39 0 39 -39v-1376q0 -39 -39 -39h-198q-39 0 -39 39v575h-451v-575q0 -39 -39 -39h-198q-39 0 -39 39zM307 1573v176q0 20 39 39l227 115q53 27 105 0l225 -115q39 -18 39 -39v-176 q0 -16 -11 -24.5t-28 -2.5l-278 119l-279 -119q-16 -6 -27.5 2t-11.5 25z" />
<glyph unicode="&#x125;" d="M-57 1575v176q0 4 1 8t3 7t4 5.5t7 5.5t7 4t8.5 5t8.5 4l227 115q53 27 104 0l226 -115q37 -25 39 -39v-176q0 -16 -11.5 -24.5t-27.5 -2.5l-279 119l-278 -119q-16 -6 -27.5 2.5t-11.5 24.5zM123 39v1376q0 39 39 39h198q39 0 39 -39v-444q117 74 246 73 q166 0 236.5 -90t70.5 -258v-657q0 -39 -39 -39h-198q-39 0 -39 39v616q0 133 -119 133q-68 0 -158 -43v-706q0 -39 -39 -39h-198q-39 0 -39 39z" />
<glyph unicode="&#x126;" horiz-adv-x="1249" d="M31 1063v168q0 39 39 39h53v145q0 39 39 39h198q39 0 39 -39v-145h451v145q0 39 39 39h198q39 0 39 -39v-145h54q39 0 39 -39v-168q0 -39 -39 -39h-54v-985q0 -39 -39 -39h-198q-39 0 -39 39v575h-451v-575q0 -39 -39 -39h-198q-39 0 -39 39v985h-53q-39 0 -39 39z M399 870h451v154h-451v-154z" />
<glyph unicode="&#x127;" d="M31 1151v158q0 39 39 39h53v67q0 39 39 39h198q39 0 39 -39v-67h115q39 0 39 -39v-158q0 -39 -39 -39h-115v-141q117 74 246 73q166 0 236.5 -90t70.5 -258v-657q0 -39 -39 -39h-198q-39 0 -39 39v616q0 133 -119 133q-68 0 -158 -43v-706q0 -39 -39 -39h-198 q-39 0 -39 39v1073h-53q-39 0 -39 39z" />
<glyph unicode="&#x128;" horiz-adv-x="911" d="M61 39v106q0 39 39 39h217v1086h-217q-39 0 -39 39v106q0 39 39 39h711q39 0 39 -39v-106q0 -39 -39 -39h-217v-1086h217q39 0 39 -39v-106q0 -39 -39 -39h-711q-39 0 -39 39zM137 1604v147q0 31 39 66q53 45 133 45q70 0 165 -37t124 -37q25 0 57.5 12t53.5 25l20 12 q16 6 29.5 -1t13.5 -24v-145q0 -37 -39 -65q-53 -45 -133 -46q-55 0 -153.5 37t-135.5 37q-25 0 -58.5 -12t-53.5 -25l-21 -12q-14 -6 -27.5 0t-13.5 23z" />
<glyph unicode="&#x129;" horiz-adv-x="522" d="M-57 1217v147q0 31 39 66q53 45 133 45q70 0 165 -37t123 -37q25 0 58 12t53 25l21 12q16 6 29.5 -1t13.5 -24v-145q0 -37 -39 -66q-53 -45 -133 -45q-55 0 -153.5 37t-135.5 37q-25 0 -58.5 -12t-54.5 -25l-20 -12q-16 -6 -28.5 0t-12.5 23zM123 39v946q0 39 39 39h198 q39 0 39 -39v-946q0 -39 -39 -39h-198q-39 0 -39 39z" />
<glyph unicode="&#x12a;" horiz-adv-x="911" d="M61 39v106q0 39 39 39h217v1086h-217q-39 0 -39 39v106q0 39 39 39h711q39 0 39 -39v-106q0 -39 -39 -39h-217v-1086h217q39 0 39 -39v-106q0 -39 -39 -39h-711q-39 0 -39 39zM195 1647v157q0 39 38 39h445q39 0 39 -39v-157q0 -39 -39 -39h-445q-39 0 -38 39z" />
<glyph unicode="&#x12b;" horiz-adv-x="522" d="M0 1237v158q0 39 39 39h444q39 0 39 -39v-158q0 -39 -39 -39h-444q-39 0 -39 39zM123 39v946q0 39 39 39h198q39 0 39 -39v-946q0 -39 -39 -39h-198q-39 0 -39 39z" />
<glyph unicode="&#x12e;" horiz-adv-x="911" d="M61 39v106q0 39 39 39h217v1086h-217q-39 0 -39 39v106q0 39 39 39h711q39 0 39 -39v-106q0 -39 -39 -39h-217v-1086h217q39 0 39 -39v-106q0 -39 -39 -39h-217q-41 -31 -70.5 -77t-29.5 -87q0 -66 38 -65q16 0 46 8l28 10q12 0 12 -22v-121q0 -23 -22 -33 q-71 -23 -147 -23q-94 0 -133.5 61.5t-39.5 143.5q0 141 99 205h-275q-39 0 -39 39z" />
<glyph unicode="&#x12f;" horiz-adv-x="522" d="M61 -205q0 141 99 205q-37 0 -37 39v946q0 39 39 39h198q39 0 39 -39v-946q0 -20 -22 -39q-98 -84 -98 -164q0 -66 38 -65q16 0 45 8l29 10q12 0 12 -22v-121q0 -23 -22 -33q-72 -23 -148 -23q-94 0 -133 61.5t-39 143.5zM123 1217v198q0 39 39 39h198q39 0 39 -39v-198 q0 -39 -39 -39h-198q-39 0 -39 39z" />
<glyph unicode="&#x130;" horiz-adv-x="911" d="M61 39v106q0 39 39 39h217v1086h-217q-39 0 -39 39v106q0 39 39 39h711q39 0 39 -39v-106q0 -39 -39 -39h-217v-1086h217q39 0 39 -39v-106q0 -39 -39 -39h-711q-39 0 -39 39zM317 1575v199q0 39 39 38h199q39 0 39 -38v-199q0 -39 -39 -39h-199q-39 0 -39 39z" />
<glyph unicode="&#x131;" horiz-adv-x="522" d="M123 39v946q0 39 39 39h198q39 0 39 -39v-946q0 -39 -39 -39h-198q-39 0 -39 39z" />
<glyph unicode="&#x132;" horiz-adv-x="1679" d="M61 39v106q0 39 39 39h217v1086h-217q-39 0 -39 39v106q0 39 39 39h711q39 0 39 -39v-106q0 -39 -39 -39h-217v-1086h217q39 0 39 -39v-106q0 -39 -39 -39h-711q-39 0 -39 39zM993 39v168q0 39 39 39h43q109 0 157 53t48 172v944q0 39 39 39h199q39 0 38 -39v-964 q0 -451 -430 -451h-94q-39 0 -39 39z" />
<glyph unicode="&#x133;" horiz-adv-x="1044" d="M123 39v946q0 39 39 39h198q39 0 39 -39v-946q0 -39 -39 -39h-198q-39 0 -39 39zM123 1217v198q0 39 39 39h198q39 0 39 -39v-198q0 -39 -39 -39h-198q-39 0 -39 39zM481 -197q0 35 39 35q37 -2 55 -2q70 0 70 78v1071q0 39 39 39h199q39 0 39 -39v-1118 q0 -147 -60.5 -212t-183.5 -65l-158 9q-39 6 -39 39v165zM645 1217v198q0 39 39 39h199q39 0 39 -39v-198q0 -39 -39 -39h-199q-39 0 -39 39z" />
<glyph unicode="&#x134;" horiz-adv-x="768" d="M82 39v168q0 39 39 39h43q109 0 157 53t48 172v944q0 39 39 39h198q39 0 39 -39v-964q0 -451 -430 -451h-94q-39 0 -39 39zM188 1573v176q0 20 39 39l228 115q53 27 104 0l225 -115q39 -18 39 -39v-176q0 -16 -11 -24.5t-28 -2.5l-278 119l-279 -119q-16 -6 -27.5 2 t-11.5 25z" />
<glyph unicode="&#x135;" horiz-adv-x="522" d="M-57 1145v176q0 4 1 8t3 7t4 5t7 5.5t7 4.5t8.5 5t8.5 4l227 115q53 27 104 0l226 -115q37 -25 39 -39v-176q0 -16 -11.5 -24.5t-27.5 -2.5l-279 119l-278 -119q-16 -6 -27.5 2t-11.5 25zM-41 -197q0 35 39 35q37 -2 55 -2q70 0 70 78v1071q0 39 39 39h198q39 0 39 -39 v-1118q0 -147 -60 -212t-183 -65l-158 9q-39 6 -39 39v165z" />
<glyph unicode="&#x136;" horiz-adv-x="1126" d="M123 39v1376q0 39 39 39h198q39 0 39 -39v-1376q0 -39 -39 -39h-198q-39 0 -39 39zM401 758l375 657q23 39 51 39h228q18 0 27.5 -12t0.5 -27l-374 -657l397 -719q8 -14 -2 -26.5t-27 -12.5h-229q-33 0 -51 39zM473 -84q0 35 35 35h199q35 0 34 -35v-213l-69 -178 q-14 -35 -39 -35h-92q-37 0 -31 33l37 162h-39q-35 0 -35 34v197z" />
<glyph unicode="&#x137;" horiz-adv-x="952" d="M123 39v1376q0 39 39 39h198q39 0 39 -39v-1376q0 -39 -39 -39h-198q-39 0 -39 39zM391 -84q0 35 35 35h199q35 0 34 -35v-213l-69 -178q-14 -35 -39 -35h-92q-37 0 -31 33l37 162h-39q-35 0 -35 34v197zM401 573l213 412q20 39 52 39h221q16 0 24.5 -12.5t-0.5 -26.5 l-211 -405l236 -541q6 -14 -1 -26.5t-24 -12.5h-221q-35 0 -51 39z" />
<glyph unicode="&#x139;" horiz-adv-x="1034" d="M123 39v1376q0 39 39 39h198q39 0 39 -39v-1159h514q39 0 39 -39v-178q0 -39 -39 -39h-751q-39 0 -39 39zM129.5 1570.5q-6.5 14.5 1.5 28.5l117 226q18 39 55 39h252q18 0 24 -14.5t-4 -28.5l-163 -226q-31 -39 -56 -39h-202q-18 0 -24.5 14.5z" />
<glyph unicode="&#x13a;" horiz-adv-x="522" d="M123 39v1376q0 39 39 39h198q39 0 39 -39v-1376q0 -39 -39 -39h-198q-39 0 -39 39zM127.5 1611.5q-6.5 14.5 1.5 28.5l117 226q20 39 55 39h252q18 0 24 -14.5t-4 -28.5l-163 -226q-31 -39 -56 -39h-202q-18 0 -24.5 14.5z" />
<glyph unicode="&#x13b;" horiz-adv-x="1034" d="M123 39v1376q0 39 39 39h198q39 0 39 -39v-1159h514q39 0 39 -39v-178q0 -39 -39 -39h-751q-39 0 -39 39zM426 -84q0 35 35 35h198q35 0 35 -35v-213l-69 -178q-14 -35 -39 -35h-92q-37 0 -31 33l37 162h-39q-35 0 -35 34v197z" />
<glyph unicode="&#x13c;" horiz-adv-x="522" d="M123 39v1376q0 39 39 39h198q39 0 39 -39v-1376q0 -39 -39 -39h-198q-39 0 -39 39zM129 -84q0 35 35 35h198q35 0 35 -35v-213l-69 -178q-14 -35 -39 -35h-92q-37 0 -31 33l37 162h-39q-35 0 -35 34v197z" />
<glyph unicode="&#x13d;" horiz-adv-x="1034" d="M123 39v1376q0 39 39 39h198q39 0 39 -39v-1159h514q39 0 39 -39v-178q0 -39 -39 -39h-751q-39 0 -39 39zM477 1221v198q0 35 35 35h199q35 0 34 -35v-184l-88 -135q-23 -35 -49 -35h-80q-16 0 -27.5 10t-2.5 23l53 88h-39q-35 0 -35 35z" />
<glyph unicode="&#x13e;" horiz-adv-x="522" d="M123 39v1376q0 39 39 39h198q39 0 39 -39v-1376q0 -39 -39 -39h-198q-39 0 -39 39zM477 1221v198q0 35 35 35h199q35 0 34 -35v-184l-88 -135q-23 -35 -49 -35h-80q-16 0 -27.5 10t-2.5 23l53 88h-39q-35 0 -35 35z" />
<glyph unicode="&#x13f;" horiz-adv-x="1034" d="M123 39v1376q0 39 39 39h198q39 0 39 -39v-1159h514q39 0 39 -39v-178q0 -39 -39 -39h-751q-39 0 -39 39zM543 711v198q0 39 39 39h198q39 0 39 -39v-198q0 -39 -39 -39h-198q-39 0 -39 39z" />
<glyph unicode="&#x140;" horiz-adv-x="686" d="M123 39v1376q0 39 39 39h198q39 0 39 -39v-1376q0 -39 -39 -39h-198q-39 0 -39 39zM451 629v198q0 39 38 39h199q39 0 39 -39v-198q0 -39 -39 -39h-199q-39 0 -38 39z" />
<glyph unicode="&#x141;" horiz-adv-x="1034" d="M41 664v84q0 29 39 38l43 11v618q0 39 39 39h198q39 0 39 -39v-559l248 53q39 6 39 -28v-86q0 -33 -39 -39l-248 -54v-446h514q39 0 39 -39v-178q0 -39 -39 -39h-751q-39 0 -39 39v604l-43 -10q-16 -4 -27.5 5t-11.5 26z" />
<glyph unicode="&#x142;" horiz-adv-x="522" d="M41 664v84q0 29 39 38l43 11v618q0 39 39 39h198q39 0 39 -39v-561l43 10q39 10 39 -28v-86q0 -29 -39 -39l-43 -11v-661q0 -39 -39 -39h-198q-39 0 -39 39v604l-43 -10q-16 -4 -27.5 5t-11.5 26z" />
<glyph unicode="&#x143;" horiz-adv-x="1249" d="M123 39v1376q0 39 39 39h207q33 0 51 -39l430 -829v829q0 39 39 39h198q39 0 39 -39v-1376q0 -39 -39 -39h-206q-33 0 -52 39l-430 829v-829q0 -39 -39 -39h-198q-39 0 -39 39zM493.5 1570.5q-6.5 14.5 2.5 28.5l116 226q18 39 56 39h252q18 0 24 -14.5t-4 -28.5 l-164 -226q-31 -39 -55 -39h-203q-18 0 -24.5 14.5z" />
<glyph unicode="&#x144;" d="M123 39v946q0 39 39 39h178q39 0 39 -39v-29q125 88 266 88q166 0 236.5 -90t70.5 -258v-657q0 -39 -39 -39h-198q-39 0 -39 39v616q0 133 -119 133q-68 0 -158 -43v-706q0 -39 -39 -39h-198q-39 0 -39 39zM409.5 1181.5q-6.5 14.5 2.5 28.5l116 226q20 39 56 39h252 q18 0 24 -14.5t-4 -28.5l-164 -226q-31 -39 -55 -39h-203q-18 0 -24.5 14.5z" />
<glyph unicode="&#x145;" horiz-adv-x="1249" d="M123 39v1376q0 39 39 39h207q33 0 51 -39l430 -829v829q0 39 39 39h198q39 0 39 -39v-1376q0 -39 -39 -39h-206q-33 0 -52 39l-430 829v-829q0 -39 -39 -39h-198q-39 0 -39 39zM514 -84q0 35 35 35h199q35 0 34 -35v-213l-69 -178q-14 -35 -39 -35h-92q-37 0 -31 33 l37 162h-39q-35 0 -35 34v197z" />
<glyph unicode="&#x146;" d="M123 39v946q0 39 39 39h178q39 0 39 -39v-29q125 88 266 88q166 0 236.5 -90t70.5 -258v-657q0 -39 -39 -39h-198q-39 0 -39 39v616q0 133 -119 133q-68 0 -158 -43v-706q0 -39 -39 -39h-198q-39 0 -39 39zM406 -84q0 35 34 35h199q35 0 35 -35v-213l-70 -178 q-14 -35 -39 -35h-92q-37 0 -31 33l37 162h-39q-35 0 -34 34v197z" />
<glyph unicode="&#x147;" horiz-adv-x="1249" d="M123 39v1376q0 39 39 39h207q33 0 51 -39l430 -829v829q0 39 39 39h198q39 0 39 -39v-1376q0 -39 -39 -39h-206q-33 0 -52 39l-430 829v-829q0 -39 -39 -39h-198q-39 0 -39 39zM309 1700v176q0 16 11.5 24.5t27.5 2.5l279 -119l278 119q16 6 27.5 -2.5t11.5 -24.5v-176 q0 -20 -39 -39l-225 -115q-51 -27 -105 0l-227 115q-39 18 -39 39z" />
<glyph unicode="&#x148;" d="M123 39v946q0 39 39 39h178q39 0 39 -39v-29q125 88 266 88q166 0 236.5 -90t70.5 -258v-657q0 -39 -39 -39h-198q-39 0 -39 39v616q0 133 -119 133q-68 0 -158 -43v-706q0 -39 -39 -39h-198q-39 0 -39 39zM227 1266v182q0 16 11.5 24.5t27.5 2.5l279 -119l278 119 q16 6 27.5 -2.5t11.5 -24.5v-182q0 -20 -39 -39l-225 -115q-51 -27 -104 0l-228 115q-39 18 -39 39z" />
<glyph unicode="&#x149;" d="M0 1221v198q0 35 35 35h198q35 0 35 -35v-184l-88 -135q-23 -35 -49 -35h-80q-16 0 -27.5 10t-3.5 23l54 88h-39q-35 0 -35 35zM123 39v946q0 39 39 39h178q39 0 39 -39v-29q125 88 266 88q166 0 236.5 -90t70.5 -258v-657q0 -39 -39 -39h-198q-39 0 -39 39v616 q0 133 -119 133q-68 0 -158 -43v-706q0 -39 -39 -39h-198q-39 0 -39 39z" />
<glyph unicode="&#x14c;" horiz-adv-x="1249" d="M123 512v430q0 256 129 394.5t372.5 138.5t372.5 -138.5t129 -394.5v-430q0 -256 -129 -394t-372.5 -138t-372.5 138t-129 394zM365 1647v157q0 39 38 39h445q39 0 39 -39v-157q0 -39 -39 -39h-445q-39 0 -38 39zM399 532q0 -297 225.5 -297t225.5 297v390 q0 297 -225.5 297t-225.5 -297v-390z" />
<glyph unicode="&#x14d;" horiz-adv-x="1077" d="M123 389v246q0 205 107.5 307t308 102t308 -102t107.5 -307v-246q0 -205 -107.5 -307t-308 -102t-308 102t-107.5 307zM279 1237v158q0 39 38 39h445q39 0 39 -39v-158q0 -39 -39 -39h-445q-39 0 -38 39zM399 385q0 -164 139.5 -164t139.5 164v256q0 164 -139.5 164 t-139.5 -164v-256z" />
<glyph unicode="&#x14e;" horiz-adv-x="1249" d="M123 512v430q0 256 129 394.5t372.5 138.5t372.5 -138.5t129 -394.5v-430q0 -256 -129 -394t-372.5 -138t-372.5 138t-129 394zM301 1860q0 39 39 38h168q39 0 39 -38q0 -135 77.5 -135.5t77.5 135.5q0 39 39 38h168q39 1 39 -38q0 -170 -80 -250t-243.5 -80t-243.5 80 t-80 250zM399 532q0 -297 225.5 -297t225.5 297v390q0 297 -225.5 297t-225.5 -297v-390z" />
<glyph unicode="&#x14f;" horiz-adv-x="1077" d="M123 389v246q0 205 107.5 307t308 102t308 -102t107.5 -307v-246q0 -205 -107.5 -307t-308 -102t-308 102t-107.5 307zM215 1425q0 39 39 39h168q39 0 39 -39q0 -135 77.5 -135t77.5 135q0 39 39 39h168q39 0 39 -39q0 -170 -80 -249.5t-243.5 -79.5t-243.5 79.5 t-80 249.5zM399 385q0 -164 139.5 -164t139.5 164v256q0 164 -139.5 164t-139.5 -164v-256z" />
<glyph unicode="&#x150;" horiz-adv-x="1249" d="M123 512v430q0 256 129 394.5t372.5 138.5t372.5 -138.5t129 -394.5v-430q0 -256 -129 -394t-372.5 -138t-372.5 138t-129 394zM289 1589l135 291q18 39 49 39h189q16 0 26 -12.5t2 -26.5l-135 -291q-18 -39 -51 -39h-189q-16 0 -25 12.5t-1 26.5zM399 532 q0 -297 225.5 -297t225.5 297v390q0 297 -225.5 297t-225.5 -297v-390zM678 1589l135 291q18 39 49 39h189q16 0 26 -12.5t2 -26.5l-135 -291q-18 -39 -51 -39h-188q-16 0 -25.5 12.5t-1.5 26.5z" />
<glyph unicode="&#x151;" horiz-adv-x="1077" d="M123 389v246q0 205 107.5 307t308 102t308 -102t107.5 -307v-246q0 -205 -107.5 -307t-308 -102t-308 102t-107.5 307zM203 1206l135 291q18 39 49 39h188q16 0 26.5 -12.5t2.5 -26.5l-135 -291q-18 -39 -51 -39h-189q-16 0 -25 12.5t-1 26.5zM399 385q0 -164 139.5 -164 t139.5 164v256q0 164 -139.5 164t-139.5 -164v-256zM592 1206l135 291q18 39 49 39h189q16 0 26 -12.5t2 -26.5l-135 -291q-18 -39 -51 -39h-189q-16 0 -25 12.5t-1 26.5z" />
<glyph unicode="&#x152;" horiz-adv-x="1658" d="M123 512v430q0 256 129 394.5t373 138.5q139 0 225 -86v26q0 39 39 39h649q39 0 39 -39v-178q0 -39 -39 -39h-412v-328h371q39 0 39 -39v-178q0 -39 -39 -39h-371v-358h412q39 0 39 -39v-178q0 -39 -39 -39h-649q-39 0 -39 39v31q-86 -90 -225 -90q-244 0 -373 138 t-129 394zM399 532q0 -297 225.5 -297t225.5 297v390q0 297 -225.5 297t-225.5 -297v-390z" />
<glyph unicode="&#x153;" horiz-adv-x="1619" d="M123 389v246q0 205 107.5 307t308.5 102q195 0 290 -96q102 96 275 96q205 0 304 -120.5t99 -313.5v-172q0 -39 -39 -39h-510q20 -168 201 -168q49 0 116.5 7.5t108.5 13.5l43 6q39 4 39 -33v-176q0 -37 -39 -41q-150 -29 -284 -28q-201 0 -312 98q-98 -98 -292 -98 q-201 0 -308.5 102t-107.5 307zM399 385q0 -164 139.5 -164t139.5 164v256q0 164 -139.5 164t-139.5 -164v-256zM954 598h297v29q0 92 -31.5 139t-111.5 47q-84 0 -118 -52t-36 -163z" />
<glyph unicode="&#x154;" horiz-adv-x="1187" d="M123 39v1376q0 39 39 39h452q471 0 471 -440q0 -344 -292 -420l329 -553q10 -14 2 -27.5t-24 -13.5h-234q-23 0 -49 39l-317 534h-101v-534q0 -39 -39 -39h-198q-39 0 -39 39zM399 819h179q117 0 174 44.5t57 150.5q0 109 -54.5 151.5t-170.5 42.5h-185v-389z M430.5 1570.5q-6.5 14.5 1.5 28.5l117 226q20 39 55 39h252q18 0 24.5 -14.5t-3.5 -28.5l-164 -226q-31 -39 -56 -39h-202q-18 0 -24.5 14.5z" />
<glyph unicode="&#x155;" horiz-adv-x="675" d="M123 39v946q0 39 39 39h178q39 0 39 -39v-78q53 137 186 137l45 -4q35 -2 35 -39v-237q0 -18 -8 -28.5t-25 -8.5q-12 2 -20 2q-113 0 -193 -121v-569q0 -39 -39 -39h-198q-39 0 -39 39zM248 1181.5q-6 14.5 2 28.5l117 226q18 39 55 39h252q18 0 24 -14.5t-4 -28.5 l-164 -226q-31 -39 -55 -39h-203q-18 0 -24 14.5z" />
<glyph unicode="&#x156;" horiz-adv-x="1187" d="M123 39v1376q0 39 39 39h452q471 0 471 -440q0 -344 -292 -420l329 -553q10 -14 2 -27.5t-24 -13.5h-234q-23 0 -49 39l-317 534h-101v-534q0 -39 -39 -39h-198q-39 0 -39 39zM399 819h179q117 0 174 44.5t57 150.5q0 109 -54.5 151.5t-170.5 42.5h-185v-389zM479 -84 q0 35 35 35h199q35 0 35 -35v-213l-70 -178q-14 -35 -39 -35h-92q-37 0 -31 33l37 162h-39q-35 0 -35 34v197z" />
<glyph unicode="&#x157;" horiz-adv-x="675" d="M123 39v946q0 39 39 39h178q39 0 39 -39v-78q53 137 186 137l45 -4q35 -2 35 -39v-237q0 -18 -8 -28.5t-25 -8.5q-12 2 -20 2q-113 0 -193 -121v-569q0 -39 -39 -39h-198q-39 0 -39 39zM129 -84q0 35 35 35h198q35 0 35 -35v-213l-69 -178q-14 -35 -39 -35h-92 q-37 0 -31 33l37 162h-39q-35 0 -35 34v197z" />
<glyph unicode="&#x158;" horiz-adv-x="1187" d="M123 39v1376q0 39 39 39h452q471 0 471 -440q0 -344 -292 -420l329 -553q10 -14 2 -27.5t-24 -13.5h-234q-23 0 -49 39l-317 534h-101v-534q0 -39 -39 -39h-198q-39 0 -39 39zM246 1700v176q0 16 11 24.5t28 2.5l278 -119l279 119q16 6 27.5 -2.5t11.5 -24.5v-176 q0 -20 -39 -39l-226 -115q-51 -27 -104 0l-227 115q-39 18 -39 39zM399 819h179q117 0 174 44.5t57 150.5q0 109 -54.5 151.5t-170.5 42.5h-185v-389z" />
<glyph unicode="&#x159;" horiz-adv-x="675" d="M66 1266v182q0 16 11 24.5t27 2.5l279 -119l279 119q16 6 27 -2.5t11 -24.5v-182q0 -20 -38 -39l-226 -115q-51 -27 -104 0l-228 115q-39 18 -38 39zM123 39v946q0 39 39 39h178q39 0 39 -39v-78q53 137 186 137l45 -4q35 -2 35 -39v-237q0 -18 -8 -28.5t-25 -8.5 q-12 2 -20 2q-113 0 -193 -121v-569q0 -39 -39 -39h-198q-39 0 -39 39z" />
<glyph unicode="&#x15a;" horiz-adv-x="1095" d="M102 63v187q0 37 41 31q231 -45 348 -45t166.5 38.5t49.5 128.5v41q0 61 -40 95t-120 61l-174 57q-260 84 -260 361v51q0 207 130 306.5t337 99.5q70 0 155.5 -9.5t136.5 -19.5l52 -8q39 -4 39 -39v-180q0 -37 -39 -33q-207 33 -340 33q-104 0 -149.5 -37t-45.5 -113v-31 q0 -88 121 -129l174 -57q141 -47 220 -131t79 -256v-62q0 -233 -114.5 -328t-360.5 -95q-72 0 -164 11t-147 21l-56 13q-39 4 -39 38zM434.5 1570.5q-6.5 14.5 1.5 28.5l117 226q20 39 55 39h252q18 0 24.5 -14.5t-3.5 -28.5l-164 -226q-31 -39 -55 -39h-203 q-18 0 -24.5 14.5z" />
<glyph unicode="&#x15b;" horiz-adv-x="993" d="M92 68v170q0 39 39 32q209 -45 330 -45q86 0 119.5 18.5t33.5 57.5q0 37 -32.5 52.5t-100.5 23.5l-71 10q-59 8 -103.5 23.5t-95.5 47t-80 94t-29 150.5q0 176 110 259t296 83q74 0 149.5 -8t114.5 -16l39 -10q39 -8 39 -39v-168q0 -35 -39 -33q-168 29 -289 29 q-80 0 -111.5 -16.5t-31.5 -55.5q0 -23 18.5 -37t39 -18t61.5 -10l86 -13q61 -8 108 -25.5t96.5 -50t76 -94t26.5 -147.5q0 -193 -100.5 -272.5t-305.5 -79.5q-78 0 -166 12t-139 24l-49 13q-39 8 -39 39zM354.5 1181.5q-6.5 14.5 1.5 28.5l117 226q18 39 55 39h252 q18 0 24.5 -14.5t-3.5 -28.5l-164 -226q-31 -39 -55 -39h-203q-18 0 -24.5 14.5z" />
<glyph unicode="&#x15c;" horiz-adv-x="1095" d="M102 63v187q0 37 41 31q231 -45 348 -45t166.5 38.5t49.5 128.5v41q0 61 -40 95t-120 61l-174 57q-260 84 -260 361v51q0 207 130 306.5t337 99.5q70 0 155.5 -9.5t136.5 -19.5l52 -8q39 -4 39 -39v-180q0 -37 -39 -33q-207 33 -340 33q-104 0 -149.5 -37t-45.5 -113v-31 q0 -88 121 -129l174 -57q141 -47 220 -131t79 -256v-62q0 -233 -114.5 -328t-360.5 -95q-72 0 -164 11t-147 21l-56 13q-39 4 -39 38zM248 1573v176q0 20 39 39l227 115q53 27 104 0l226 -115q39 -18 39 -39v-176q0 -16 -11.5 -24.5t-27.5 -2.5l-279 119l-278 -119 q-16 -6 -27.5 2t-11.5 25z" />
<glyph unicode="&#x15d;" horiz-adv-x="993" d="M92 68v170q0 39 39 32q209 -45 330 -45q86 0 119.5 18.5t33.5 57.5q0 37 -32.5 52.5t-100.5 23.5l-71 10q-59 8 -103.5 23.5t-95.5 47t-80 94t-29 150.5q0 176 110 259t296 83q74 0 149.5 -8t114.5 -16l39 -10q39 -8 39 -39v-168q0 -35 -39 -33q-168 29 -289 29 q-80 0 -111.5 -16.5t-31.5 -55.5q0 -23 18.5 -37t39 -18t61.5 -10l86 -13q61 -8 108 -25.5t96.5 -50t76 -94t26.5 -147.5q0 -193 -100.5 -272.5t-305.5 -79.5q-78 0 -166 12t-139 24l-49 13q-39 8 -39 39zM170 1145v176q0 4 1 8t3 7t4 5t7 5.5t7.5 4.5t8.5 5t8 4l227 115 q53 27 105 0l225 -115q37 -25 39 -39v-176q0 -16 -11.5 -24.5t-27.5 -2.5l-279 119l-278 -119q-16 -6 -27.5 2t-11.5 25z" />
<glyph unicode="&#x15e;" horiz-adv-x="1095" d="M102 63v187q0 37 41 31q231 -45 348 -45t166.5 38.5t49.5 128.5v41q0 61 -40 95t-120 61l-174 57q-260 84 -260 361v51q0 207 130 306.5t337 99.5q70 0 155.5 -9.5t136.5 -19.5l52 -8q39 -4 39 -39v-180q0 -37 -39 -33q-207 33 -340 33q-104 0 -149.5 -37t-45.5 -113v-31 q0 -88 121 -129l174 -57q141 -47 220 -131t79 -256v-62q0 -215 -99.5 -312t-305.5 -109l-9 -39h9q170 -1 170 -179q0 -174 -211 -174l-150 15q-39 4 -39 39v55q0 35 37 35h41q76 0 76 53q0 49 -70 49h-33q-35 0 -28 39l24 111q-57 6 -120.5 15t-98.5 15l-35 9q-39 4 -39 38z " />
<glyph unicode="&#x15f;" horiz-adv-x="993" d="M92 68v170q0 39 39 32q209 -45 330 -45q86 0 119.5 18.5t33.5 57.5q0 37 -32.5 52.5t-100.5 23.5l-71 10q-59 8 -103.5 23.5t-95.5 47t-80 94t-29 150.5q0 176 110 259t296 83q74 0 149.5 -8t114.5 -16l39 -10q39 -8 39 -39v-168q0 -35 -39 -33q-168 29 -289 29 q-80 0 -111.5 -16.5t-31.5 -55.5q0 -23 18.5 -37t39 -18t61.5 -10l86 -13q61 -8 108 -25.5t96.5 -50t76 -94t26.5 -147.5q0 -182 -88 -262t-268 -88l-9 -39h9q170 -1 170 -179q0 -174 -211 -174l-150 15q-39 4 -39 39v55q0 35 37 35h41q76 0 76 53q0 49 -70 49h-33 q-35 0 -28 39l24 113q-55 6 -110.5 16t-81.5 16l-29 9q-39 8 -39 39z" />
<glyph unicode="&#x160;" horiz-adv-x="1095" d="M102 63v187q0 37 41 31q231 -45 348 -45t166.5 38.5t49.5 128.5v41q0 61 -40 95t-120 61l-174 57q-260 84 -260 361v51q0 207 130 306.5t337 99.5q70 0 155.5 -9.5t136.5 -19.5l52 -8q39 -4 39 -39v-180q0 -37 -39 -33q-207 33 -340 33q-104 0 -149.5 -37t-45.5 -113v-31 q0 -88 121 -129l174 -57q141 -47 220 -131t79 -256v-62q0 -233 -114.5 -328t-360.5 -95q-72 0 -164 11t-147 21l-56 13q-39 4 -39 38zM231 1700v176q0 16 11.5 24.5t27.5 2.5l279 -119l278 119q16 6 27.5 -2.5t11.5 -24.5v-176q0 -20 -39 -39l-225 -115q-51 -27 -104 0 l-228 115q-39 18 -39 39z" />
<glyph unicode="&#x161;" horiz-adv-x="993" d="M92 68v170q0 39 39 32q209 -45 330 -45q86 0 119.5 18.5t33.5 57.5q0 37 -32.5 52.5t-100.5 23.5l-71 10q-59 8 -103.5 23.5t-95.5 47t-80 94t-29 150.5q0 176 110 259t296 83q74 0 149.5 -8t114.5 -16l39 -10q39 -8 39 -39v-168q0 -35 -39 -33q-168 29 -289 29 q-80 0 -111.5 -16.5t-31.5 -55.5q0 -23 18.5 -37t39 -18t61.5 -10l86 -13q61 -8 108 -25.5t96.5 -50t76 -94t26.5 -147.5q0 -193 -100.5 -272.5t-305.5 -79.5q-78 0 -166 12t-139 24l-49 13q-39 8 -39 39zM180 1266v182q0 16 11.5 24.5t27.5 2.5l279 -119l278 119 q16 6 27.5 -2.5t11.5 -24.5v-182q0 -20 -39 -39l-225 -115q-51 -27 -105 0l-227 115q-39 18 -39 39z" />
<glyph unicode="&#x162;" horiz-adv-x="1126" d="M61 1237v178q0 39 39 39h926q39 0 39 -39v-178q0 -39 -39 -39h-324v-1159q0 -39 -38 -39h-199q-39 0 -39 39v1159h-326q-39 0 -39 39zM432 -84q0 35 35 35h199q35 0 34 -35v-213l-69 -178q-14 -35 -39 -35h-92q-37 0 -31 33l37 162h-39q-35 0 -35 34v197z" />
<glyph unicode="&#x163;" horiz-adv-x="727" d="M20 827v158q0 39 39 39h105v227q0 39 39 39h198q39 0 39 -39v-227h228q39 0 39 -39v-158q0 -39 -39 -39h-228v-436q0 -117 105 -116l123 12q39 4 39 -29v-184q0 -35 -39 -41q-104 -14 -201 -14q-303 0 -303 337v471h-105q-39 0 -39 39zM295 -84q0 35 35 35h198 q35 0 35 -35v-213l-69 -178q-14 -35 -39 -35h-93q-37 0 -30 33l37 162h-39q-35 0 -35 34v197z" />
<glyph unicode="&#x164;" horiz-adv-x="1126" d="M61 1237v178q0 39 39 39h926q39 0 39 -39v-178q0 -39 -39 -39h-324v-1159q0 -39 -38 -39h-199q-39 0 -39 39v1159h-326q-39 0 -39 39zM248 1700v176q0 16 11 24.5t28 2.5l278 -119l279 119q16 6 27.5 -2.5t11.5 -24.5v-176q0 -20 -39 -39l-226 -115q-51 -27 -104 0 l-227 115q-39 18 -39 39z" />
<glyph unicode="&#x165;" horiz-adv-x="727" d="M20 827v158q0 39 39 39h105v227q0 39 39 39h198q39 0 39 -39v-227h228q39 0 39 -39v-158q0 -39 -39 -39h-228v-436q0 -117 105 -116l123 12q39 4 39 -29v-184q0 -35 -39 -41q-104 -14 -201 -14q-303 0 -303 337v471h-105q-39 0 -39 39zM518 1221v198q0 35 35 35h199 q35 0 34 -35v-184l-88 -135q-23 -35 -49 -35h-80q-16 0 -27.5 10t-2.5 23l53 88h-39q-35 0 -35 35z" />
<glyph unicode="&#x166;" horiz-adv-x="1126" d="M61 1237v178q0 39 39 39h926q39 0 39 -39v-178q0 -39 -39 -39h-324v-348h207q39 0 39 -39v-168q0 -39 -39 -39h-207v-565q0 -39 -38 -39h-199q-39 0 -39 39v565h-207q-39 0 -39 39v168q0 39 39 39h207v348h-326q-39 0 -39 39z" />
<glyph unicode="&#x167;" horiz-adv-x="727" d="M20 827v158q0 39 39 39h105v227q0 39 39 39h198q39 0 39 -39v-227h228q39 0 39 -39v-158q0 -39 -39 -39h-228v-116h54q39 0 38 -39v-158q0 -39 -38 -39h-54v-84q0 -117 105 -116l123 12q39 4 39 -29v-184q0 -35 -39 -41q-104 -14 -201 -14q-303 0 -303 337v119h-53 q-39 0 -39 39v158q0 39 39 39h53v116h-105q-39 0 -39 39z" />
<glyph unicode="&#x168;" horiz-adv-x="1249" d="M123 532v883q0 39 39 39h198q39 0 39 -39v-883q0 -297 225.5 -296.5t225.5 296.5v883q0 39 39 39h198q39 0 39 -39v-883q0 -553 -501.5 -552.5t-501.5 552.5zM307 1604v147q0 31 39 66q53 45 133 45q70 0 165 -37t124 -37q25 0 57.5 12t53.5 25l20 12q16 6 29.5 -1 t13.5 -24v-145q0 -37 -39 -65q-53 -45 -133 -46q-55 0 -153.5 37t-135.5 37q-25 0 -58.5 -12t-53.5 -25l-21 -12q-16 -6 -28.5 0t-12.5 23z" />
<glyph unicode="&#x169;" d="M123 328v657q0 39 39 39h198q39 0 39 -39v-616q0 -133 119 -133q68 0 158 43v706q0 39 39 39h198q39 0 39 -39v-946q0 -39 -39 -39h-178q-39 0 -39 39v29q-125 -88 -266 -88q-166 0 -236.5 90t-70.5 258zM219 1217v147q0 31 39 66q53 45 133 45q70 0 165 -37t124 -37 q25 0 57.5 12t53.5 25l20 12q16 6 29.5 -1t13.5 -24v-145q0 -37 -39 -66q-53 -45 -133 -45q-55 0 -153.5 37t-135.5 37q-25 0 -58.5 -12t-53.5 -25l-21 -12q-14 -6 -27.5 0t-13.5 23z" />
<glyph unicode="&#x16a;" horiz-adv-x="1249" d="M123 532v883q0 39 39 39h198q39 0 39 -39v-883q0 -297 225.5 -296.5t225.5 296.5v883q0 39 39 39h198q39 0 39 -39v-883q0 -553 -501.5 -552.5t-501.5 552.5zM365 1647v157q0 39 38 39h445q39 0 39 -39v-157q0 -39 -39 -39h-445q-39 0 -38 39z" />
<glyph unicode="&#x16b;" d="M123 328v657q0 39 39 39h198q39 0 39 -39v-616q0 -133 119 -133q68 0 158 43v706q0 39 39 39h198q39 0 39 -39v-946q0 -39 -39 -39h-178q-39 0 -39 39v29q-125 -88 -266 -88q-166 0 -236.5 90t-70.5 258zM276 1237v158q0 39 39 39h445q39 0 39 -39v-158q0 -39 -39 -39 h-445q-39 0 -39 39z" />
<glyph unicode="&#x16c;" horiz-adv-x="1249" d="M123 532v883q0 39 39 39h198q39 0 39 -39v-883q0 -297 225.5 -296.5t225.5 296.5v883q0 39 39 39h198q39 0 39 -39v-883q0 -553 -501.5 -552.5t-501.5 552.5zM301 1860q0 39 39 38h168q39 0 39 -38q0 -135 77.5 -135.5t77.5 135.5q0 39 39 38h168q39 1 39 -38 q0 -170 -80 -250t-243.5 -80t-243.5 80t-80 250z" />
<glyph unicode="&#x16d;" d="M123 328v657q0 39 39 39h198q39 0 39 -39v-616q0 -133 119 -133q68 0 158 43v706q0 39 39 39h198q39 0 39 -39v-946q0 -39 -39 -39h-178q-39 0 -39 39v29q-125 -88 -266 -88q-166 0 -236.5 90t-70.5 258zM213 1425q0 39 39 39h168q39 0 39 -39q0 -135 77.5 -135t77.5 135 q0 39 39 39h168q39 0 39 -39q0 -170 -80 -249.5t-243.5 -79.5t-243.5 79.5t-80 249.5z" />
<glyph unicode="&#x16e;" horiz-adv-x="1249" d="M123 532v883q0 39 39 39h198q39 0 39 -39v-883q0 -297 225.5 -296.5t225.5 296.5v883q0 39 39 39h198q39 0 39 -39v-883q0 -553 -501.5 -552.5t-501.5 552.5zM369 1505.5q0 104.5 68.5 165t187 60.5t187.5 -60.5t69 -165t-69 -165t-187.5 -60.5t-187 60.5t-68.5 165z M543 1505q0 -92 82 -92t82 92t-82 92t-82 -92z" />
<glyph unicode="&#x16f;" d="M123 328v657q0 39 39 39h198q39 0 39 -39v-616q0 -133 119 -133q68 0 158 43v706q0 39 39 39h198q39 0 39 -39v-946q0 -39 -39 -39h-178q-39 0 -39 39v29q-125 -88 -266 -88q-166 0 -236.5 90t-70.5 258zM281 1331.5q0 104.5 68.5 164.5t187 60t187.5 -60t69 -164.5 t-69 -165t-187.5 -60.5t-187 60.5t-68.5 165zM455 1331q0 -92 81.5 -92t81.5 92t-81.5 92t-81.5 -92z" />
<glyph unicode="&#x170;" horiz-adv-x="1249" d="M123 532v883q0 39 39 39h198q39 0 39 -39v-883q0 -297 225.5 -296.5t225.5 296.5v883q0 39 39 39h198q39 0 39 -39v-883q0 -553 -501.5 -552.5t-501.5 552.5zM289 1589l135 291q18 39 49 39h189q16 0 26 -12.5t2 -26.5l-135 -291q-18 -39 -51 -39h-189q-16 0 -25 12.5 t-1 26.5zM678 1589l135 291q18 39 49 39h189q16 0 26 -12.5t2 -26.5l-135 -291q-18 -39 -51 -39h-188q-16 0 -25.5 12.5t-1.5 26.5z" />
<glyph unicode="&#x171;" d="M123 328v657q0 39 39 39h198q39 0 39 -39v-616q0 -133 119 -133q68 0 158 43v706q0 39 39 39h198q39 0 39 -39v-946q0 -39 -39 -39h-178q-39 0 -39 39v29q-125 -88 -266 -88q-166 0 -236.5 90t-70.5 258zM201 1206l135 291q20 39 49 39h188q16 0 26.5 -12.5t2.5 -26.5 l-135 -291q-20 -39 -51 -39h-189q-16 0 -25 12.5t-1 26.5zM590 1206l135 291q20 39 49 39h189q16 0 26 -12.5t2 -26.5l-135 -291q-20 -39 -51 -39h-189q-16 0 -25 12.5t-1 26.5z" />
<glyph unicode="&#x172;" horiz-adv-x="1249" d="M123 532v883q0 39 39 39h198q39 0 39 -39v-883q0 -297 225.5 -296.5t225.5 296.5v883q0 39 39 39h198q39 0 39 -39v-883q0 -225 -78.5 -355t-244.5 -177q-25 -8 -64 -63.5t-39 -100.5q0 -66 39 -65q16 0 45 8l29 10q12 0 12 -22v-121q0 -23 -22 -33q-72 -23 -148 -23 q-94 0 -133 61.5t-39 143.5q0 121 76 189q-436 33 -436 548z" />
<glyph unicode="&#x173;" d="M123 328v657q0 39 39 39h198q39 0 39 -39v-616q0 -133 119 -133q68 0 158 43v706q0 39 39 39h198q39 0 39 -39v-946q0 -27 -28 -43q-35 -23 -66 -71t-31 -89q0 -66 39 -65q16 0 45 8l29 10q12 0 12 -22v-121q0 -23 -22 -33q-72 -23 -148 -23q-94 0 -133 61.5t-39 143.5 q0 145 105 209q-18 8 -19 35v29q-125 -88 -266 -88q-166 0 -236.5 90t-70.5 258z" />
<glyph unicode="&#x174;" horiz-adv-x="1914" d="M49 1411q-8 43 29 43h229q33 0 39 -39l201 -1022l252 1022q10 39 45 39h227q35 0 45 -39l252 -1022l201 1022q6 39 39 39h229q37 0 29 -43l-291 -1372q-6 -39 -47 -39h-273q-37 0 -47 39l-250 915l-251 -915q-10 -39 -48 -39h-272q-41 0 -47 39zM639 1573v176q0 20 39 39 l227 115q53 27 105 0l225 -115q39 -18 39 -39v-176q0 -16 -11.5 -24.5t-27.5 -2.5l-279 119l-278 -119q-16 -6 -27.5 2t-11.5 25z" />
<glyph unicode="&#x175;" horiz-adv-x="1587" d="M49 983q-4 16 6.5 28.5t26.5 12.5h219q39 0 45 -39l125 -653l164 653q10 39 47 39h223q37 0 47 -39l164 -653l127 655q6 37 45 37h217q16 0 26.5 -12.5t6.5 -28.5l-209 -944q-6 -39 -47 -39h-295q-35 0 -45 39l-147 530l-150 -530q-10 -39 -47 -39h-295q-39 0 -45 39z M475 1145v176q0 4 1 8t3 7t4 5t7.5 5.5t7.5 4.5t8 5t8 4l227 115q53 27 105 0l225 -115q37 -25 39 -39v-176q0 -16 -11.5 -24.5t-27.5 -2.5l-278 119l-279 -119q-16 -6 -27.5 2t-11.5 25z" />
<glyph unicode="&#x176;" horiz-adv-x="1177" d="M39 1411q-6 16 2 29.5t27 13.5h235q23 0 39 -39l248 -627l246 627q16 39 38 39h236q18 0 26.5 -13.5t2.5 -29.5l-412 -950v-422q0 -39 -39 -39h-199q-39 0 -38 39v422zM270 1573v176q0 20 39 39l228 115q53 27 104 0l225 -115q39 -18 39 -39v-176q0 -16 -11 -24.5 t-28 -2.5l-278 119l-279 -119q-16 -6 -27.5 2t-11.5 25z" />
<glyph unicode="&#x177;" horiz-adv-x="1024" d="M33 985q-4 16 6 27.5t27 11.5h217q35 0 45 -35l174 -567l192 565q10 37 45 37h217q16 0 26.5 -12.5t6.5 -28.5l-454 -1335q-10 -37 -43 -37h-222q-16 0 -25 12t-5 29l112 332zM193 1145v176q0 4 1 8t3 7t4 5t7 5.5t7 4.5t8 5t8 4l228 115q53 27 104 0l225 -115 q37 -25 39 -39v-176q0 -16 -11 -24.5t-28 -2.5l-278 119l-279 -119q-16 -6 -27 2t-11 25z" />
<glyph unicode="&#x178;" horiz-adv-x="1177" d="M39 1411q-6 16 2 29.5t27 13.5h235q23 0 39 -39l248 -627l246 627q16 39 38 39h236q18 0 26.5 -13.5t2.5 -29.5l-412 -950v-422q0 -39 -39 -39h-199q-39 0 -38 39v422zM225 1575v199q0 39 39 38h199q39 0 39 -38v-199q0 -39 -39 -39h-199q-39 0 -39 39zM676 1575v199 q0 39 39 38h198q39 0 39 -38v-199q0 -39 -39 -39h-198q-39 0 -39 39z" />
<glyph unicode="&#x179;" horiz-adv-x="993" d="M82 39v217l498 942h-459q-39 0 -39 39v178q0 39 39 39h751q39 0 39 -39v-217l-497 -942h458q39 0 39 -39v-178q0 -39 -39 -39h-751q-39 0 -39 39zM364.5 1570.5q-6.5 14.5 2.5 28.5l116 226q20 39 56 39h252q18 0 24 -14.5t-4 -28.5l-164 -226q-31 -39 -55 -39h-203 q-18 0 -24.5 14.5z" />
<glyph unicode="&#x17a;" horiz-adv-x="952" d="M82 39v207l387 532h-348q-39 0 -39 39v168q0 39 39 39h710q39 0 39 -39v-207l-387 -532h348q39 0 39 -39v-168q0 -39 -39 -39h-710q-39 0 -39 39zM342.5 1181.5q-6.5 14.5 1.5 28.5l117 226q18 39 55 39h252q18 0 24 -14.5t-4 -28.5l-163 -226q-31 -39 -56 -39h-202 q-18 0 -24.5 14.5z" />
<glyph unicode="&#x17b;" horiz-adv-x="993" d="M82 39v217l498 942h-459q-39 0 -39 39v178q0 39 39 39h751q39 0 39 -39v-217l-497 -942h458q39 0 39 -39v-178q0 -39 -39 -39h-751q-39 0 -39 39zM358 1575v199q0 39 39 38h199q39 0 39 -38v-199q0 -39 -39 -39h-199q-39 0 -39 39z" />
<glyph unicode="&#x17c;" horiz-adv-x="952" d="M82 39v207l387 532h-348q-39 0 -39 39v168q0 39 39 39h710q39 0 39 -39v-207l-387 -532h348q39 0 39 -39v-168q0 -39 -39 -39h-710q-39 0 -39 39zM338 1217v198q0 39 39 39h198q39 0 39 -39v-198q0 -39 -39 -39h-198q-39 0 -39 39z" />
<glyph unicode="&#x17d;" horiz-adv-x="993" d="M82 39v217l498 942h-459q-39 0 -39 39v178q0 39 39 39h751q39 0 39 -39v-217l-497 -942h458q39 0 39 -39v-178q0 -39 -39 -39h-751q-39 0 -39 39zM180 1700v176q0 16 11.5 24.5t27.5 2.5l279 -119l278 119q16 6 27.5 -2.5t11.5 -24.5v-176q0 -20 -39 -39l-225 -115 q-51 -27 -105 0l-227 115q-39 18 -39 39z" />
<glyph unicode="&#x17e;" horiz-adv-x="952" d="M82 39v207l387 532h-348q-39 0 -39 39v168q0 39 39 39h710q39 0 39 -39v-207l-387 -532h348q39 0 39 -39v-168q0 -39 -39 -39h-710q-39 0 -39 39zM160 1266v182q0 16 11 24.5t28 2.5l278 -119l279 119q16 6 27.5 -2.5t11.5 -24.5v-182q0 -20 -39 -39l-226 -115 q-51 -27 -104 0l-227 115q-39 18 -39 39z" />
<glyph unicode="&#x192;" horiz-adv-x="1024" d="M184 827v158q0 39 39 39h146v117q0 180 88 257t219 77q39 0 72.5 -3.5t48.5 -5.5l14 -4q39 -6 39 -39v-174q0 -37 -39 -35q-43 4 -72 5q-94 0 -94 -91v-104h166q39 0 39 -39v-158q0 -39 -39 -39h-166v-921q0 -147 -60.5 -212t-183.5 -65l-157 9q-39 6 -39 39v165 q0 35 39 35q37 -2 55 -2q70 0 70 78v874h-146q-39 0 -39 39z" />
<glyph unicode="&#x218;" horiz-adv-x="1095" d="M102 63v187q0 37 41 31q231 -45 348 -45t166.5 38.5t49.5 128.5v41q0 61 -40 95t-120 61l-174 57q-260 84 -260 361v51q0 207 130 306.5t337 99.5q70 0 155.5 -9.5t136.5 -19.5l52 -8q39 -4 39 -39v-180q0 -37 -39 -33q-207 33 -340 33q-104 0 -149.5 -37t-45.5 -113v-31 q0 -88 121 -129l174 -57q141 -47 220 -131t79 -256v-62q0 -233 -114.5 -328t-360.5 -95q-72 0 -164 11t-147 21l-56 13q-39 4 -39 38zM418 -84q0 35 35 35h198q35 0 35 -35v-213l-70 -178q-14 -35 -38 -35h-93q-37 0 -30 33l37 162h-39q-35 0 -35 34v197z" />
<glyph unicode="&#x219;" horiz-adv-x="993" d="M92 68v170q0 39 39 32q209 -45 330 -45q86 0 119.5 18.5t33.5 57.5q0 37 -32.5 52.5t-100.5 23.5l-71 10q-59 8 -103.5 23.5t-95.5 47t-80 94t-29 150.5q0 176 110 259t296 83q74 0 149.5 -8t114.5 -16l39 -10q39 -8 39 -39v-168q0 -35 -39 -33q-168 29 -289 29 q-80 0 -111.5 -16.5t-31.5 -55.5q0 -23 18.5 -37t39 -18t61.5 -10l86 -13q61 -8 108 -25.5t96.5 -50t76 -94t26.5 -147.5q0 -193 -100.5 -272.5t-305.5 -79.5q-78 0 -166 12t-139 24l-49 13q-39 8 -39 39zM354 -84q0 35 35 35h199q35 0 35 -35v-213l-70 -178 q-14 -35 -39 -35h-92q-37 0 -31 33l37 162h-39q-35 0 -35 34v197z" />
<glyph unicode="&#x21a;" horiz-adv-x="1126" d="M61 1237v178q0 39 39 39h926q39 0 39 -39v-178q0 -39 -39 -39h-324v-1159q0 -39 -38 -39h-199q-39 0 -39 39v1159h-326q-39 0 -39 39zM432 -84q0 35 35 35h199q35 0 34 -35v-213l-69 -178q-14 -35 -39 -35h-92q-37 0 -31 33l37 162h-39q-35 0 -35 34v197z" />
<glyph unicode="&#x21b;" horiz-adv-x="727" d="M20 827v158q0 39 39 39h105v227q0 39 39 39h198q39 0 39 -39v-227h228q39 0 39 -39v-158q0 -39 -39 -39h-228v-436q0 -117 105 -116l123 12q39 4 39 -29v-184q0 -35 -39 -41q-104 -14 -201 -14q-303 0 -303 337v471h-105q-39 0 -39 39zM295 -84q0 35 35 35h198 q35 0 35 -35v-213l-69 -178q-14 -35 -39 -35h-93q-37 0 -30 33l37 162h-39q-35 0 -35 34v197z" />
<glyph unicode="&#x2c6;" horiz-adv-x="839" d="M102 1145v176q0 4 1 8t3.5 7t4.5 5t7 5.5t7 4.5t8 5t8 4l228 115q53 27 104 0l225 -115q37 -25 39 -39v-176q0 -16 -11 -24.5t-28 -2.5l-278 119l-279 -119q-16 -6 -27.5 2t-11.5 25z" />
<glyph unicode="&#x2c7;" horiz-adv-x="839" d="M102 1266v182q0 16 11.5 24.5t27.5 2.5l279 -119l278 119q16 6 27.5 -2.5t11.5 -24.5v-182q0 -20 -39 -39l-225 -115q-51 -27 -104 0l-228 115q-39 18 -39 39z" />
<glyph unicode="&#x2d8;" horiz-adv-x="851" d="M102 1477q0 39 39 39h168q39 0 39 -39q0 -135 78 -135.5t78 135.5q0 39 39 39h168q39 0 39 -39q0 -170 -80 -250t-244 -80t-244 80t-80 250z" />
<glyph unicode="&#x2d9;" horiz-adv-x="481" d="M102 1217v198q0 39 39 39h199q39 0 39 -39v-198q0 -39 -39 -39h-199q-39 0 -39 39z" />
<glyph unicode="&#x2da;" horiz-adv-x="716" d="M102 1331.5q0 104.5 69 164.5t187.5 60t187 -60t68.5 -164.5t-68.5 -165t-187 -60.5t-187.5 60.5t-69 165zM276 1331q0 -92 82 -92t82 92t-82 92t-82 -92z" />
<glyph unicode="&#x2db;" horiz-adv-x="593" d="M102 -174q0 55 22.5 103t53.5 79t62.5 53.5t54.5 32.5l22 8h175q-12 -12 -31 -34.5t-50.5 -92t-31.5 -139.5q0 -90 59 -182q12 -14 5 -28.5t-29 -14.5h-199q-12 8 -30.5 23.5t-50.5 70.5t-32 121z" />
<glyph unicode="&#x2dc;" horiz-adv-x="839" d="M102 1217v147q0 31 39 66q53 45 133 45q70 0 165.5 -37t123.5 -37q25 0 57.5 12t53.5 25l20 12q16 6 29.5 -1t13.5 -24v-145q0 -37 -39 -66q-53 -45 -133 -45q-55 0 -153.5 37t-135.5 37q-25 0 -58.5 -12t-53.5 -25l-21 -12q-16 -6 -28.5 0t-12.5 23z" />
<glyph unicode="&#x2dd;" horiz-adv-x="995" d="M102 1145l136 291q20 39 49 39h188q16 0 26.5 -12.5t2.5 -26.5l-135 -291q-20 -39 -52 -39h-188q-16 0 -25.5 12t-1.5 27zM492 1145l135 291q20 39 49 39h188q16 0 26.5 -12.5t2.5 -26.5l-135 -291q-20 -39 -51 -39h-189q-16 0 -25.5 12t-0.5 27z" />
<glyph unicode="&#x394;" horiz-adv-x="1355" d="M74 39l438 1376q10 39 43 39h246q33 0 43 -39l438 -1376q4 -16 -5 -27.5t-26 -11.5h-1145q-16 0 -26 11.5t-6 27.5zM438 256h477l-237 766z" />
<glyph unicode="&#x3a0;" horiz-adv-x="1515" d="M20 1237v178q0 39 39 39h1397q39 0 39 -39v-178q0 -39 -39 -39h-227v-846q0 -117 104 -116l123 12q39 4 39 -29v-184q0 -35 -39 -41q-104 -14 -201 -14q-303 0 -303 337v881h-450v-1159q0 -39 -39 -39h-199q-39 0 -39 39v1159h-166q-39 0 -39 39z" />
<glyph unicode="&#x3a3;" horiz-adv-x="993" d="M82 39v217l250 471l-250 471v217q0 39 39 39h751q39 0 39 -39v-178q0 -39 -39 -39h-458l235 -436q18 -33 0 -66l-235 -440h458q39 0 39 -39v-178q0 -39 -39 -39h-751q-39 0 -39 39z" />
<glyph unicode="&#x3a9;" horiz-adv-x="1249" d="M51 39v178q0 39 39 39h96q-63 137 -63 276v410q0 256 129 394.5t372.5 138.5t372.5 -138.5t129 -394.5v-410q0 -150 -63 -276h96q39 0 39 -39v-178q0 -39 -39 -39h-444q-39 0 -39 39v188q174 55 174 305v390q0 297 -225.5 297t-225.5 -297v-390q0 -250 174 -305v-188 q0 -39 -38 -39h-445q-39 0 -39 39z" />
<glyph unicode="&#x3b1;" d="M123 348v328q0 172 85 270t253 98q106 0 215 -49v11q0 39 39 38h198q39 0 39 -38v-715q0 -68 43 -68l41 2q39 4 39 -28v-162q0 -37 -39 -41q-70 -14 -147 -14q-127 0 -174 86q-137 -86 -254 -86q-168 0 -253 98t-85 270zM399 379q0 -154 136 -154q47 0 141 43v504 q-80 27 -141 27q-135 0 -136 -154v-266z" />
<glyph unicode="&#x3b4;" horiz-adv-x="1167" d="M123 410v86q0 123 60.5 216t162.5 136q-96 106 -96 252q0 182 110.5 278.5t286.5 96.5q53 0 120 -9.5t107 -19.5l41 -8q39 -6 39 -39v-174q0 -39 -39 -33q-172 33 -258 33q-129 0 -129 -119q0 -76 127 -145l172 -97q217 -121 217 -372v-82q0 -207 -121.5 -318.5 t-338.5 -111.5q-225 0 -343 112.5t-118 317.5zM399 412q0 -186 185 -187q90 0 137 48.5t47 138.5v80q0 102 -94 153l-127 68q-147 -35 -148 -219v-82z" />
<glyph unicode="&#x3bc;" d="M123 -350v1335q0 39 39 39h198q39 0 39 -39v-616q0 -133 119 -133q68 0 158 43v706q0 39 39 39h198q39 0 39 -39v-946q0 -39 -39 -39h-178q-39 0 -39 39v29q-125 -88 -266 -88h-31v-330q0 -39 -39 -39h-198q-39 0 -39 39z" />
<glyph unicode="&#x3c0;" horiz-adv-x="1280" d="M20 827v158q0 39 39 39h1162q39 0 39 -39v-158q0 -39 -39 -39h-228v-436q0 -117 105 -116l123 12q39 4 39 -29v-184q0 -35 -39 -41q-104 -14 -201 -14q-303 0 -303 337v471h-277v-749q0 -39 -39 -39h-198q-39 0 -39 39v749h-105q-39 0 -39 39z" />
<glyph unicode="&#x3c9;" horiz-adv-x="1460" d="M123 410v122q0 94 21.5 243t35.5 210q8 39 49 39h197q35 0 35 -33l-2 -6v-8q-59 -262 -60 -451v-127q0 -174 96.5 -174t96.5 154v299q0 39 39 39h198q39 0 39 -39v-299q0 -154 96.5 -154t96.5 174v127q0 188 -60 451q0 2 -1 7t-1 7q0 33 31 33h201q41 0 49 -39 q14 -61 35.5 -209.5t21.5 -243.5v-122q0 -201 -76.5 -315.5t-269.5 -114.5q-168 0 -262 114q-94 -115 -260 -114q-193 0 -269.5 114.5t-76.5 315.5z" />
<glyph unicode="&#x2000;" horiz-adv-x="959" />
<glyph unicode="&#x2001;" horiz-adv-x="1919" />
<glyph unicode="&#x2002;" horiz-adv-x="959" />
<glyph unicode="&#x2003;" horiz-adv-x="1919" />
<glyph unicode="&#x2004;" horiz-adv-x="639" />
<glyph unicode="&#x2005;" horiz-adv-x="479" />
<glyph unicode="&#x2006;" horiz-adv-x="319" />
<glyph unicode="&#x2007;" horiz-adv-x="319" />
<glyph unicode="&#x2008;" horiz-adv-x="239" />
<glyph unicode="&#x2009;" horiz-adv-x="383" />
<glyph unicode="&#x200a;" horiz-adv-x="106" />
<glyph unicode="&#x2010;" horiz-adv-x="716" d="M102 633v168q0 39 39 39h434q39 0 39 -39v-168q0 -39 -39 -39h-434q-39 0 -39 39z" />
<glyph unicode="&#x2011;" horiz-adv-x="716" d="M102 633v168q0 39 39 39h434q39 0 39 -39v-168q0 -39 -39 -39h-434q-39 0 -39 39z" />
<glyph unicode="&#x2012;" horiz-adv-x="716" d="M102 633v168q0 39 39 39h434q39 0 39 -39v-168q0 -39 -39 -39h-434q-39 0 -39 39z" />
<glyph unicode="&#x2013;" horiz-adv-x="1249" d="M102 633v168q0 39 39 39h967q39 0 39 -39v-168q0 -39 -39 -39h-967q-39 0 -39 39z" />
<glyph unicode="&#x2014;" horiz-adv-x="1454" d="M102 633v168q0 39 39 39h1172q39 0 39 -39v-168q0 -39 -39 -39h-1172q-39 0 -39 39z" />
<glyph unicode="&#x2018;" horiz-adv-x="501" d="M102 848v237l78 330q10 39 43 39h103q37 0 32 -37l-41 -311h43q39 0 39 -39v-219q0 -39 -39 -39h-219q-39 0 -39 39z" />
<glyph unicode="&#x2019;" horiz-adv-x="501" d="M102 1196v219q0 39 39 39h219q39 0 39 -39v-237l-77 -330q-10 -39 -43 -39h-103q-37 0 -33 37l41 311h-43q-39 0 -39 39z" />
<glyph unicode="&#x201a;" horiz-adv-x="501" d="M102 39v219q0 39 39 39h219q39 0 39 -39v-238l-77 -329q-10 -39 -43 -39h-103q-37 0 -33 37l41 311h-43q-39 0 -39 39z" />
<glyph unicode="&#x201c;" horiz-adv-x="921" d="M102 848v237l78 330q10 39 43 39h103q37 0 32 -37l-41 -311h43q39 0 39 -39v-219q0 -39 -39 -39h-219q-39 0 -39 39zM522 848v237l78 330q10 39 43 39h102q37 0 33 -37l-41 -311h43q39 0 39 -39v-219q0 -39 -39 -39h-219q-39 0 -39 39z" />
<glyph unicode="&#x201d;" horiz-adv-x="921" d="M102 1196v219q0 39 39 39h219q39 0 39 -39v-237l-77 -330q-10 -39 -43 -39h-103q-37 0 -33 37l41 311h-43q-39 0 -39 39zM522 1196v219q0 39 39 39h219q39 0 39 -39v-237l-78 -330q-10 -39 -43 -39h-102q-37 0 -33 37l41 311h-43q-39 0 -39 39z" />
<glyph unicode="&#x201e;" horiz-adv-x="921" d="M102 39v219q0 39 39 39h219q39 0 39 -39v-238l-77 -329q-10 -39 -43 -39h-103q-37 0 -33 37l41 311h-43q-39 0 -39 39zM522 39v219q0 39 39 39h219q39 0 39 -39v-238l-78 -329q-10 -39 -43 -39h-102q-37 0 -33 37l41 311h-43q-39 0 -39 39z" />
<glyph unicode="&#x2020;" horiz-adv-x="1064" d="M102 848v178q0 39 39 39h254v350q0 39 39 39h199q39 0 39 -39v-350h252q39 0 39 -39v-178q0 -39 -39 -39h-252v-770q0 -39 -39 -39h-199q-39 0 -39 39v770h-254q-39 0 -39 39z" />
<glyph unicode="&#x2021;" horiz-adv-x="1064" d="M102 367v178q0 39 39 39h254v286h-254q-39 0 -39 39v178q0 39 39 39h254v289q0 39 39 39h199q39 0 39 -39v-289h252q39 0 39 -39v-178q0 -39 -39 -39h-252v-286h252q39 0 39 -39v-178q0 -39 -39 -39h-252v-289q0 -39 -39 -39h-199q-39 0 -39 39v289h-254q-39 0 -39 39z " />
<glyph unicode="&#x2022;" horiz-adv-x="563" d="M102 592v280q0 39 39 39h281q39 0 39 -39v-280q0 -39 -39 -39h-281q-39 0 -39 39z" />
<glyph unicode="&#x2026;" horiz-adv-x="1341" d="M102 39v219q0 39 39 39h219q39 0 39 -39v-219q0 -39 -39 -39h-219q-39 0 -39 39zM522 39v219q0 39 39 39h219q39 0 39 -39v-219q0 -39 -39 -39h-219q-39 0 -39 39zM942 39v219q0 39 39 39h219q39 0 39 -39v-219q0 -39 -39 -39h-219q-39 0 -39 39z" />
<glyph unicode="&#x202f;" horiz-adv-x="383" />
<glyph unicode="&#x2030;" horiz-adv-x="3084" d="M123 1034v39q0 184 112.5 293t303 109t303 -109t112.5 -293v-39q0 -184 -112.5 -292.5t-303 -108.5t-303 108.5t-112.5 292.5zM399 1024q0 -156 139.5 -156t139.5 156v59q0 156 -139.5 156t-139.5 -156v-59zM612 39l670 1376q20 39 45 39h223q16 0 26.5 -12.5t2.5 -26.5 l-670 -1376q-20 -39 -45 -39h-223q-16 0 -26.5 12.5t-2.5 26.5zM1237 381v39q0 184 112.5 292.5t303 108.5t303 -108.5t112.5 -292.5v-39q0 -184 -112.5 -292.5t-303 -108.5t-303 108.5t-112.5 292.5zM1513 371q0 -156 139.5 -156t139.5 156v59q0 156 -139.5 156 t-139.5 -156v-59zM2130 381v39q0 184 112.5 292.5t303 108.5t303 -108.5t112.5 -292.5v-39q0 -184 -112.5 -292.5t-303 -108.5t-303 108.5t-112.5 292.5zM2406 371q0 -156 139.5 -156t139.5 156v59q0 156 -139.5 156t-139.5 -156v-59z" />
<glyph unicode="&#x2039;" horiz-adv-x="706" d="M129 627q-27 51 0 98l156 281q18 39 49 38h221q16 0 25.5 -12t1.5 -26l-183 -330l183 -330q8 -14 -1.5 -26.5t-25.5 -12.5h-221q-31 0 -49 39z" />
<glyph unicode="&#x203a;" horiz-adv-x="706" d="M125 346l182 330l-182 330q-8 14 1 26t26 12h221q29 0 49 -38l156 -281q29 -51 0 -98l-156 -281q-20 -39 -49 -39h-221q-16 0 -25.5 12.5t-1.5 26.5z" />
<glyph unicode="&#x2044;" horiz-adv-x="440" d="M-268 39l669 1376q20 39 52 39h229q16 0 25.5 -12.5t1.5 -26.5l-670 -1376q-18 -39 -51 -39h-230q-16 0 -25 12.5t-1 26.5z" />
<glyph unicode="&#x205f;" horiz-adv-x="479" />
<glyph unicode="&#x20ac;" horiz-adv-x="1024" d="M14 469l15 158q4 39 39 39h127v122h-127q-37 0 -33 39l14 158q4 39 39 39h111q20 219 147 335t350 116q49 0 105.5 -6.5t89.5 -10.5l33 -6q39 -4 39 -41v-182q0 -37 -41 -33q-133 16 -226 16q-184 0 -217 -188h385q37 0 33 -39l-14 -158q-4 -39 -39 -39h-373v-122h373 q37 0 33 -39l-15 -158q-4 -39 -39 -39h-344q33 -188 228 -188q41 0 100 5t98 11l39 4q39 4 39 -33v-184q0 -37 -39 -41q-139 -25 -248 -24q-223 0 -350 115.5t-147 334.5h-152q-37 0 -33 39z" />
<glyph unicode="&#x2122;" horiz-adv-x="1914" d="M61 1237v178q0 39 39 39h619q39 0 39 -39v-178q0 -39 -39 -39h-170v-432q0 -39 -39 -39h-199q-39 0 -39 39v432h-172q-39 0 -39 39zM819 766v649q0 39 39 39h250q31 0 49 -39l160 -313l158 313q20 39 49 39h250q39 0 38 -39v-649q0 -39 -38 -39h-199q-39 0 -39 39v256 l-94 -195q-20 -39 -47 -39h-158q-29 0 -47 39l-94 195v-256q0 -39 -39 -39h-199q-39 0 -39 39z" />
<glyph unicode="&#x2192;" horiz-adv-x="1146" d="M106 653v176q0 39 39 39h500l-170 306q-8 14 -2 26t23 12h227q27 0 51 -36l256 -404q18 -30 0 -61l-254 -404q-25 -37 -51 -37h-227q-16 0 -22.5 12.5t1.5 26.5l168 305h-500q-39 0 -39 39z" />
<glyph unicode="&#x2202;" horiz-adv-x="1126" d="M123 410v208q0 385 360 386q137 0 244 -64v43q0 123 -48 179.5t-177 56.5q-39 0 -103.5 -5.5t-109.5 -11.5l-45 -6q-39 -4 -39 33v180q0 33 39 39q145 27 268 27q492 0 492 -512v-553q0 -207 -114 -318.5t-327 -111.5q-217 0 -328.5 112.5t-111.5 317.5zM399 416 q0 -180 164 -180t164 180v274q-111 57 -184 58q-143 0 -144 -144v-188z" />
<glyph unicode="&#x2206;" horiz-adv-x="1355" d="M74 39l438 1376q10 39 43 39h246q33 0 43 -39l438 -1376q4 -16 -5 -27.5t-26 -11.5h-1145q-16 0 -26 11.5t-6 27.5zM438 256h477l-237 766z" />
<glyph unicode="&#x220f;" horiz-adv-x="1515" d="M20 1237v178q0 39 39 39h1397q39 0 39 -39v-178q0 -39 -39 -39h-227v-1235q0 -117 104 -117l123 13q39 4 39 -29v-184q0 -35 -39 -41q-104 -14 -201 -15q-303 0 -303 338v1270h-450v-1548q0 -39 -39 -39h-199q-39 0 -39 39v1548h-166q-39 0 -39 39z" />
<glyph unicode="&#x2211;" horiz-adv-x="993" d="M82 -133l270 665l-270 666v217q0 39 39 39h751q39 0 39 -39v-178q0 -39 -39 -39h-469l267 -631q14 -33 0 -65l-267 -635h469q39 0 39 -39v-178q0 -39 -39 -39h-751q-39 0 -39 39v217z" />
<glyph unicode="&#x221a;" horiz-adv-x="1198" d="M33 983q-10 41 30 41h218q37 0 47 -39l184 -653l406 1306h344q39 0 38 -39v-157q0 -39 -38 -39h-121l-432 -1366q-10 -37 -50 -37h-294q-39 0 -50 37z" />
<glyph unicode="&#x221e;" horiz-adv-x="1347" d="M102 676v51q0 145 93.5 231t261.5 86q129 0 217 -75q88 76 217 75q168 0 261 -86t93 -231v-51q0 -145 -93 -231.5t-261 -86.5q-129 0 -217 76q-88 -76 -217 -76q-168 0 -261.5 86t-93.5 232zM379 686q0 -82 78 -82t78 82v31q0 82 -78 82t-78 -82v-31zM813 686 q0 -82 78 -82t78 82v31q0 82 -78 82t-78 -82v-31z" />
<glyph unicode="&#x222b;" horiz-adv-x="686" d="M20 -197q0 35 39 35q37 -2 56 -2q70 0 69 78v1227q0 180 88 257t220 77q39 0 72.5 -3.5t47.5 -5.5l15 -4q39 -6 39 -39v-174q0 -37 -39 -35q-43 4 -72 5q-94 0 -94 -91v-1261q0 -147 -60.5 -212t-183.5 -65l-158 9q-39 6 -39 39v165z" />
<glyph unicode="&#x2248;" d="M102 367v168q0 31 37 45q86 45 189 45q74 0 216 -31t208 -31q27 0 72.5 9.5t76.5 19.5l33 10q16 4 27.5 -3t11.5 -24v-167q0 -31 -37 -46q-86 -45 -188 -45q-74 0 -214.5 31t-209.5 31q-27 0 -73 -9.5t-79 -19.5l-31 -10q-16 -4 -27.5 3t-11.5 24zM102 858v168 q0 31 37 45q86 45 189 45q74 0 216 -30.5t208 -30.5q27 0 72.5 9t76.5 19l33 11q16 4 27.5 -3.5t11.5 -23.5v-168q0 -31 -37 -45q-86 -45 -188 -45q-74 0 -214.5 30.5t-209.5 30.5q-27 0 -73 -9t-79 -19l-31 -11q-16 -4 -27.5 3.5t-11.5 23.5z" />
<glyph unicode="&#x2260;" d="M102 387v168q0 39 39 39h234l82 246h-316q-39 0 -39 39v168q0 39 39 38h398l90 269q16 39 47 39h168q16 0 26.5 -12.5t3.5 -26.5l-90 -269h150q39 0 39 -38v-168q0 -39 -39 -39h-232l-81 -246h313q39 0 39 -39v-168q0 -39 -39 -39h-395l-90 -268q-16 -39 -48 -39h-168 q-16 0 -26 12.5t-4 26.5l90 268h-152q-39 0 -39 39z" />
<glyph unicode="&#x2264;" d="M102 39v168q0 39 39 39h793q39 0 39 -39v-168q0 -39 -39 -39h-793q-39 0 -39 39zM102 709v180q0 35 37 49l793 354q14 8 27.5 -1t13.5 -25v-205q0 -27 -39 -43l-531 -219l531 -219q39 -16 39 -43v-205q0 -16 -13.5 -25.5t-27.5 -1.5l-793 354q-37 18 -37 50z" />
<glyph unicode="&#x2265;" d="M102 39v168q0 39 39 39h793q39 0 39 -39v-168q0 -39 -39 -39h-793q-39 0 -39 39zM102 332v205q0 27 39 43l531 219l-531 219q-39 16 -39 43v205q0 16 13.5 25t27.5 1l793 -354q37 -14 37 -49v-180q0 -31 -37 -50l-793 -354q-14 -8 -27.5 1t-13.5 26z" />
<glyph unicode="&#x25ca;" horiz-adv-x="1388" d="M76 707q-14 20 0 41l469 665q27 41 53 41h195q27 0 53 -41l469 -665q14 -21 0 -41l-469 -666q-27 -41 -53 -41h-195q-27 0 -53 41zM389 727l305 -457l305 457l-305 457z" />
<glyph unicode="&#xe000;" horiz-adv-x="1024" d="M0 0v1024h1024v-1024h-1024z" />
</font>
</defs>
</svg>
